На всех торрентах на трекере установлена скидка на скачивание в размере 100 процентов(а).
 Возможность скачивания торрента НЕ зависит от ограничений при низком ратио, низком аплоаде, требуемом ратио или требуемом аплоаде.


Начать новую тему Ответить на тему
Статистика раздачи
Размер: 1.74 ГБ | Добавлен: 02 май 2014, 07:32 | Скачали: 1
Сидеров: 0  [0 байт/сек]    Личеров: 0  [0 байт/сек]
Пред. тема | След. тема 

Автор
Сообщение

СообщениеДобавлено: 02 май 2014, 07:32 

Название: Токарев
Оригинальное название: Tokarev
Год выпуска: 2014
Жанр: Боевик, триллер, криминал
Выпущено: США, Франция, Hannibal Pictures, Tokarev Production
Режиссер: Пако Кабесас

В ролях: Николас Кейдж, Рэйчел Николс, Петер Стормаре, Дэнни Гловер, Обри Пиплз, Елена Санчес, Майкл МакГрэйди, Павел Личникофф, Доун Хэмил, Макс Райан

О фильме: Пол Магуаер — бывший гангстер, а теперь добропорядочный бизнесмен и примерный семьянин. Но когда его дочь похищают, он вынужден поднять свои старые связи и снова вернуться на скользкую дорожку…



Продолжительность: 01:38:26
Перевод: Отсутствует
Субтитры: Русские (Enigma), английские


Кодек: H264
Качество: HDRip (AVC)
Видео: MPEG-4 AVC, 2144 Кбит/с, 1024х434
Звук: Английский (AC3, 6 ch, 384 Кбит/с)

Семпл

General
Unique ID : 197223839689515134389275811733065047533 (0x945FEE0B569142A5A5E14B9443EE1DED)
Complete name : C:tokarev.2014.HDRip.AVC.ExKinoRay.mkv
Format : Matroska
Format version : Version 2
File size : 1.74 GiB
Duration : 1h 38mn
Overall bit rate : 2 529 Kbps
Movie name : Tokarev from ExKinoRay
Encoded date : UTC 2014-05-02 01:30:43
Writing application : mkvmerge v4.9.1 ('Ich will') built on Jul 11 2011 23:53:15
Writing library : libebml v1.2.1 + libmatroska v1.1.1

Video
ID : 1
Format : AVC
Format/Info : Advanced Video Codec
Format profile : High@L4.1
Format settings, CABAC : Yes
Format settings, ReFrames : 8 frames
Codec ID : V_MPEG4/ISO/AVC
Duration : 1h 38mn
Bit rate : 2 144 Kbps
Width : 1 024 pixels
Height : 434 pixels
Display aspect ratio : 2.35:1
Frame rate mode : Constant
Frame rate : 23.976 fps
Color space : YUV
Chroma subsampling : 4:2:0
Bit depth : 8 bits
Scan type : Progressive
Bits/(Pixel*Frame) : 0.201
Stream size : 1.44 GiB (83%)
Title : Enigma
Writing library : x264 core 116 r2044 392e762
Encoding settings : cabac=1 / ref=8 / deblock=1:-2:-2 / analyse=0x3:0x113 / me=umh / subme=9 / psy=1 / psy_rd=1.00:0.20 / mixed_ref=1 / me_range=32 / chroma_me=1 / trellis=2 / 8x8dct=1 / cqm=0 / deadzone=21,11 / fast_pskip=0 / chroma_qp_offset=-3 / threads=12 / sliced_threads=0 / nr=0 / decimate=0 / interlaced=0 / bluray_compat=0 / constrained_intra=0 / bframes=8 / b_pyramid=2 / b_adapt=2 / b_bias=0 / direct=3 / weightb=1 / open_gop=0 / weightp=2 / keyint=240 / keyint_min=23 / scenecut=40 / intra_refresh=0 / rc=2pass / mbtree=0 / bitrate=2144 / ratetol=1.0 / qcomp=0.60 / qpmin=0 / qpmax=69 / qpstep=4 / cplxblur=20.0 / qblur=0.5 / ip_ratio=1.40 / pb_ratio=1.30 / aq=1:1.00
Default : Yes
Forced : No

Audio
ID : 2
Format : AC-3
Format/Info : Audio Coding 3
Mode extension : CM (complete main)
Format settings, Endianness : Big
Codec ID : A_AC3
Duration : 1h 38mn
Bit rate mode : Constant
Bit rate : 384 Kbps
Channel(s) : 6 channels
Channel positions : Front: L C R, Side: L R, LFE
Sampling rate : 48.0 KHz
Bit depth : 16 bits
Compression mode : Lossy
Stream size : 270 MiB (15%)
Default : Yes
Forced : No

Text #1
ID : 3
Format : UTF-8
Codec ID : S_TEXT/UTF8
Codec ID/Info : UTF-8 Plain Text
Language : Russian
Default : Yes
Forced : No

Text #2
ID : 4
Format : UTF-8
Codec ID : S_TEXT/UTF8
Codec ID/Info : UTF-8 Plain Text
Language : English
Default : No
Forced : No

Menu
00:00:00.000 : en:00:00:00.000
00:08:35.598 : en:00:08:35.598
00:16:44.295 : en:00:16:44.295
00:24:59.998 : en:00:24:59.998
00:37:21.448 : en:00:37:21.448
00:42:16.200 : en:00:42:16.200
00:48:20.356 : en:00:48:20.356
00:55:27.032 : en:00:55:27.032
01:07:48.731 : en:01:07:48.731
01:13:20.146 : en:01:13:20.146
01:19:58.711 : en:01:19:58.711
01:27:23.071 : en:01:27:23.071






Релиз от:

Автор релиза:
загрузка...
Правила, инструкции, FAQ!!!
Торрент  Добавлен [02 май 2014, 07:32] Зарегистрируйтесь чтобы скачивать торрент

Статус  
 
Размер  1.74 ГБ
Приватный: Нет (DHT включён)
.torrent скачан  1
Как залить торрент? | Как скачать Torrent? | Как смотреть и слушать онлайн?  


     Отправить личное сообщение
   
Страница 1 из 1
Показать сообщения за:  Поле сортировки  
Начать новую тему Ответить на тему

   Похожие торренты   Автор   Ответы   Просмотры   Последнее сообщение 
В этой теме нет новых непрочитанных сообщений. Токарев / Tokarev (2014) HDRip | L1

в форуме Новинки кино, Размер: 1.37 ГБ, Здоровье: 100%

Anonymous

0
2|0

130
2

02 май 2014, 20:36

Anonymous Перейти к последнему сообщению

В этой теме нет новых непрочитанных сообщений. Скачать торрент Проверен Токарев / Tokarev (2014) HDRip [576p] iPad

в форуме Фильмы для iPod, iPhone, iPad, Размер: 1.69 ГБ, Здоровье: 100%

Anonymous

0
6|2

77
0

13 дек 2014, 00:12

Anonymous Перейти к последнему сообщению

В этой теме нет новых непрочитанных сообщений. Токарев / Tokarev (2014) BDRip 720p | L1

в форуме Новинки кино, Размер: 4.5 ГБ, Здоровье: 100%

Anonymous

0
47|1

125
659

02 май 2014, 20:39

Anonymous Перейти к последнему сообщению

В этой теме нет новых непрочитанных сообщений. Токарев / Tokarev (2014) BDRip 1080p | L1

в форуме Новинки кино, Размер: 6.68 ГБ, Здоровье: 100%

Anonymous

0
5|0

134
11

02 май 2014, 20:42

Anonymous Перейти к последнему сообщению

В этой теме нет новых непрочитанных сообщений. Скачать торрент Проверен Гнев / Tokarev (2014) BDRip [576p] iPad

в форуме Фильмы для iPod, iPhone, iPad, Размер: 1.74 ГБ, Здоровье: 100%

Гость

0
57|6

70
3

13 сен 2015, 01:23

Гость Перейти к последнему сообщению



Сейчас этот форум просматривают: нет зарегистрированных пользователей и гости: 2


Вы не можете начинать темы
Вы не можете отвечать на сообщения
Вы не можете редактировать свои сообщения
Вы не можете удалять свои сообщения
Вы не можете добавлять вложения

Перейти:  

!ВНИМАНИЕ!
 Ресурс не предоставляет электронные версии произведений, а занимается лишь коллекционированием и каталогизацией ссылок, присылаемых и публикуемых на форуме нашими читателями. Если вы являетесь правообладателем какого-либо представленного материала и не желаете чтобы ссылка на него находилась в нашем каталоге, свяжитесь с нами и мы незамедлительно удалим её. Файлы для обмена на трекере предоставлены пользователями сайта, и администрация не несёт ответственности за их содержание. Просьба не заливать файлы, защищенные авторскими правами, а также файлы нелегального содержания!