На всех торрентах на трекере установлена скидка на скачивание в размере 100 процентов(а).
 Возможность скачивания торрента НЕ зависит от ограничений при низком ратио, низком аплоаде, требуемом ратио или требуемом аплоаде.


Начать новую тему Ответить на тему
Статистика раздачи
Размер: 3.21 ГБ | Добавлен: 15 мар 2014, 09:18 | Скачали: 0
Сидеров: 0  [0 байт/сек]    Личеров: 0  [0 байт/сек]
Пред. тема | След. тема 

Автор
Сообщение

СообщениеДобавлено: 15 мар 2014, 09:18 

Страна: США, Annapurna Pictures
Жанр: Драма, комедия, реальные события
Год выпуска: 2013
Продолжительность: 02:18:04

Перевод: Дублированный (LINE)
Cубтитры: Русские, английские
Навигация по главам: Присутствуют
Режиссер: Дэвид О. Расселл
В ролях: Кристиан Бэйл, Брэдли Купер, Эми Адамс, Джереми Реннер, Дженнифер Лоуренс, Луис С.К., Джек Хьюстон, Майкл Пенья, Ши Уигхэм


Описание:
В основе сюжета фильма реальная спецоперация, проводимая в конце 70-х — начале 80-х ФБР под кодовым названием Abscam. Она изначально была нацелена на расследование торговли краденым товаром. ФБР собиралось внедрить в преступную среду своих агентов под видом посредников, скупающих краденые шедевры для богатых коллекционеров Ближнего Востока. Впоследствии операция превратилась в изобличение коррупции на разных уровнях.



Релиз:: |


Качество видео: BDRip-AVC [American.Hustle.2013.1080p.BluRay.REMUX.DTS-HD.MA.5.1]
Формат видео: MKV

Видео: MPEG-4 AVC, 2500 Кбит/с, 1024x426, 23.976 кадр/с
Аудио#1: Русский (AC3, 2 ch, 384 Кбит/с) / Дублированный (LINE)
Аудио#2: Английский (AC3, 6 ch, 448 Кбит/с)
Субтитры: Русские, английские

General
Unique ID : 180228242393298802114389773335347182283 (0x8796B2670D647423A305C0629A11BACB)
Complete name : D:MY RIPSFilmMediaclubAmerican.Hustle.2013.x264.BDRip.AVC.MediaClub.mkv
Format : Matroska
Format version : Version 4 / Version 2
File size : 3.21 GiB
Duration : 2h 18mn
Overall bit rate : 3 328 Kbps
Movie name : Rip by Die_Roten [Mediaclub.tv]
Encoded date : UTC 2014-03-14 21:16:47
Writing application : mkvmerge v6.8.0 ('Theme for Great Cities') 64bit built on Mar 2 2014 21:34:26
Writing library : libebml v1.3.0 + libmatroska v1.4.1

Video
ID : 1
Format : AVC
Format/Info : Advanced Video Codec
Format profile : High@L4.1
Format settings, CABAC : Yes
Format settings, ReFrames : 10 frames
Codec ID : V_MPEG4/ISO/AVC
Duration : 2h 18mn
Bit rate : 2 500 Kbps
Width : 1 024 pixels
Height : 426 pixels
Display aspect ratio : 2.40:1
Frame rate mode : Constant
Frame rate : 23.976 fps
Color space : YUV
Chroma subsampling : 4:2:0
Bit depth : 8 bits
Scan type : Progressive
Bits/(Pixel*Frame) : 0.239
Stream size : 2.34 GiB (73%)
Title : American.Hustle.2013.x264.BDRip.AVC.MediaClub[Rip.by.Die.Roten]
Writing library : x264 core 138 r2358 9e941d1
Encoding settings : cabac=1 / ref=10 / deblock=1:-3:-3 / analyse=0x3:0x113 / me=umh / subme=10 / psy=1 / psy_rd=1.00:0.10 / mixed_ref=1 / me_range=48 / chroma_me=1 / trellis=2 / 8x8dct=1 / cqm=0 / deadzone=21,11 / fast_pskip=0 / chroma_qp_offset=-3 / threads=6 / lookahead_threads=1 / sliced_threads=0 / nr=0 / decimate=1 / interlaced=0 / bluray_compat=0 / constrained_intra=0 / bframes=6 / b_pyramid=2 / b_adapt=2 / b_bias=0 / direct=3 / weightb=1 / open_gop=0 / weightp=2 / keyint=240 / keyint_min=22 / scenecut=40 / intra_refresh=0 / rc_lookahead=40 / rc=2pass / mbtree=0 / bitrate=2500 / ratetol=1.0 / qcomp=0.60 / qpmin=10 / qpmax=51 / qpstep=4 / cplxblur=20.0 / qblur=0.5 / vbv_maxrate=62500 / vbv_bufsize=78125 / nal_hrd=none / ip_ratio=1.40 / pb_ratio=1.30 / aq=1:1.00
Language : English
Default : Yes
Forced : No

Audio #1
ID : 2
Format : AC-3
Format/Info : Audio Coding 3
Mode extension : CM (complete main)
Format settings, Endianness : Big
Codec ID : A_AC3
Duration : 2h 18mn
Bit rate mode : Constant
Bit rate : 384 Kbps
Channel count : 2 channels
Channel positions : Front: L R
Sampling rate : 48.0 KHz
Bit depth : 16 bits
Compression mode : Lossy
Stream size : 379 MiB (12%)
Title : RUS | LINE
Language : Russian
Default : Yes
Forced : Yes

Audio #2
ID : 3
Format : AC-3
Format/Info : Audio Coding 3
Mode extension : CM (complete main)
Format settings, Endianness : Big
Codec ID : A_AC3
Duration : 2h 18mn
Bit rate mode : Constant
Bit rate : 448 Kbps
Channel count : 6 channels
Channel positions : Front: L C R, Side: L R, LFE
Sampling rate : 48.0 KHz
Bit depth : 16 bits
Compression mode : Lossy
Stream size : 442 MiB (13%)
Title : Original | ENG
Language : English
Default : No
Forced : Yes

Text #1
ID : 4
Format : UTF-8
Codec ID : S_TEXT/UTF8
Codec ID/Info : UTF-8 Plain Text
Title : RUS
Language : Russian
Default : Yes
Forced : No

Text #2
ID : 5
Format : UTF-8
Codec ID : S_TEXT/UTF8
Codec ID/Info : UTF-8 Plain Text
Title : ENG
Language : English
Default : No
Forced : No

Menu
00:00:00.000 : en:00:00:00.000
00:07:12.641 : en:00:07:12.641
00:14:11.142 : en:00:14:11.142
00:24:08.822 : en:00:24:08.822
00:31:28.970 : en:00:31:28.970
00:39:16.104 : en:00:39:16.104
00:48:40.334 : en:00:48:40.334
00:57:01.001 : en:00:57:01.001
01:06:18.600 : en:01:06:18.600
01:15:30.943 : en:01:15:30.943
01:24:12.756 : en:01:24:12.756
01:33:09.793 : en:01:33:09.793
01:41:35.089 : en:01:41:35.089
01:51:45.824 : en:01:51:45.824
02:00:25.301 : en:02:00:25.301
02:09:50.992 : en:02:09:50.992




загрузка...
Правила, инструкции, FAQ!!!
Торрент  Добавлен [15 мар 2014, 09:18] Зарегистрируйтесь чтобы скачивать торрент

Статус  
 
Размер  3.21 ГБ
Приватный: Нет (DHT включён)
.torrent скачан  0
Как залить торрент? | Как скачать Torrent? | Как смотреть и слушать онлайн?  


     Отправить личное сообщение
   
Страница 1 из 1
Показать сообщения за:  Поле сортировки  
Начать новую тему Ответить на тему

   Похожие торренты   Автор   Ответы   Просмотры   Последнее сообщение 
В этой теме нет новых непрочитанных сообщений. Скачать торрент Афера по-американски / American Hustle (2013) HDRip | D | Чистый звук

в форуме Драмы, Мелодрамы, Размер: 1.45 ГБ, Здоровье: 100%

Anonymous

0
31|0

59
1

15 мар 2014, 13:28

Anonymous Перейти к последнему сообщению

В этой теме нет новых непрочитанных сообщений. Скачать торрент Афера по-американски / American Hustle (2013) BDRip-AVC | Лицензия

в форуме Драмы, Мелодрамы, Размер: 2.43 ГБ, Здоровье: ???%

Anonymous

0
0|1

38
0

05 апр 2014, 01:38

Anonymous Перейти к последнему сообщению

В этой теме нет новых непрочитанных сообщений. Скачать торрент Афера по-американски / American Hustle (2013) BDRip 720p | Лицензия

в форуме 720p | 1080p, Размер: 5.43 ГБ, Здоровье: 0%

Anonymous

0
0|0

45
1

05 апр 2014, 01:27

Anonymous Перейти к последнему сообщению

В этой теме нет новых непрочитанных сообщений. Афера по-американски / American Hustle (2013) DVDScr | L

в форуме Новинки кино

Anonymous

0

169

19 янв 2014, 07:33

Anonymous Перейти к последнему сообщению

В этой теме нет новых непрочитанных сообщений. Скачать торрент Афера по-американски / American Hustle (2013) Blu-ray 1080p | D | лицензия

в форуме Blu-ray, Размер: 31.79 ГБ, Здоровье: 100%

Anonymous

0
3|0

169
915

05 апр 2014, 01:33

Anonymous Перейти к последнему сообщению



Сейчас этот форум просматривают: нет зарегистрированных пользователей и гости: 1


Вы не можете начинать темы
Вы не можете отвечать на сообщения
Вы не можете редактировать свои сообщения
Вы не можете удалять свои сообщения
Вы не можете добавлять вложения

Перейти:  

!ВНИМАНИЕ!
 Ресурс не предоставляет электронные версии произведений, а занимается лишь коллекционированием и каталогизацией ссылок, присылаемых и публикуемых на форуме нашими читателями. Если вы являетесь правообладателем какого-либо представленного материала и не желаете чтобы ссылка на него находилась в нашем каталоге, свяжитесь с нами и мы незамедлительно удалим её. Файлы для обмена на трекере предоставлены пользователями сайта, и администрация не несёт ответственности за их содержание. Просьба не заливать файлы, защищенные авторскими правами, а также файлы нелегального содержания!