На всех торрентах на трекере установлена скидка на скачивание в размере 100 процентов(а).
 Возможность скачивания торрента НЕ зависит от ограничений при низком ратио, низком аплоаде, требуемом ратио или требуемом аплоаде.


Начать новую тему Ответить на тему
Статистика раздачи
Размер: 1.45 ГБ | Добавлен: 16 дек 2013, 18:10 | Скачали: 1
Сидеров: 0  [0 байт/сек]    Личеров: 1  [0 байт/сек]
Пред. тема | След. тема 

Автор
Сообщение

СообщениеДобавлено: 16 дек 2013, 18:10 

Название: Срочное погружение
Оригинальное название: Crash Dive
Год выхода: 1997
Жанр: Боевик, триллер, драма
Режиссер: Эндрю Стивенс

В ролях: Майкл Дудикофф, Фредерик Форрест, Рейнер Шёне, Джей Аковоне, Клэй Гринбуш, Катрин Белл, Майкл Кавана, Сайрус Фармер, Тайм Уинтерс

О фильме:
Экипаж атомной подводной лодки Улисс спасает жертв кораблекрушения, но жертвы оказываются террористами и захватывают подводку. Только бывший морпех может спасти экипаж, проникнув на борт лодки, уже находящейся под водой. Термин «аварийное погружение» используется, когда лодка пытается ускользнуть с экранов радаров, и никогда не предпринимается атомными подлодками.



Страна: США / Cabin Fever Entertainment Inc.
Продолжительность: 01:30:22
Перевод: Профессиональный многоголосый


Кодек: XviD
Качество: HDRip
Видео: 720x400 (1.80:1), 23.976 fps, XviD build 73 ~1845 kbps avg, 0.27 bit/pixel
Звук: 48 kHz, AC3 Dolby Digital, 3/2 (L,C,R,l,r) + LFE ch, ~448 kbps

Семпл

Format : AVI
Format/Info : Audio Video Interleave
File size : 1.45 GiB
Duration : 1h 30mn
Overall bit rate : 2 303 Kbps
Movie name : Crash.Dive.1997.XviD.HDRip.-MediaClub
Director : -=MediaClub - Odessit=-
Writing application : VirtualDubMod 1.5.10.3 | http://www.virtualdub-fr.org || (build 2550/release)
Writing library : VirtualDubMod build 2550/release

Video
ID : 0
Format : MPEG-4 Visual
Format profile : Advanced Simple@L5
Format settings, BVOP : 1
Format settings, QPel : No
Format settings, GMC : No warppoints
Format settings, Matrix : Custom
Codec ID : XVID
Codec ID/Hint : XviD
Duration : 1h 30mn
Bit rate : 1 846 Kbps
Width : 720 pixels
Height : 400 pixels
Display aspect ratio : 16:9
Frame rate : 23.976 fps
Color space : YUV
Chroma subsampling : 4:2:0
Bit depth : 8 bits
Scan type : Progressive
Compression mode : Lossy
Bits/(Pixel*Frame) : 0.267
Stream size : 1.17 GiB (80%)
Writing library : XviD 73

Audio
ID : 1
Format : AC-3
Format/Info : Audio Coding 3
Mode extension : CM (complete main)
Codec ID : 2000
Duration : 1h 30mn
Bit rate mode : Constant
Bit rate : 448 Kbps
Channel(s) : 6 channels
Channel positions : Front: L C R, Side: L R, LFE
Sampling rate : 48.0 KHz
Bit depth : 16 bits
Compression mode : Lossy
Stream size : 290 MiB (19%)
Alignment : Split accross interleaves
Interleave, duration : 42 ms (1.00 video frame)
Interleave, preload duration : 500 ms



Релиз от: |
загрузка...
Правила, инструкции, FAQ!!!
Торрент  Добавлен [16 дек 2013, 18:10] Скачать торрент
Скачать торрент
[ Размер 14.97 КБ / Просмотров 14 ]

Статус  
 
Размер  1.45 ГБ
Приватный: Нет (DHT включён)
.torrent скачан  1
Как залить торрент? | Как скачать Torrent? | Как смотреть и слушать онлайн?  


     Отправить личное сообщение
   
Страница 1 из 1
Показать сообщения за:  Поле сортировки  
Начать новую тему Ответить на тему

   Похожие торренты   Автор   Ответы   Просмотры   Последнее сообщение 
В этой теме нет новых непрочитанных сообщений. Скачать торрент Проверен Дрыжак Владимир - Виктор Сергеевич против ЦРУ. Всевышний Сидоров. Поллитра бытия. Срочное погружение. Электорат [Дрыжак Владимир (ЛИ), 2012 г., 64 kbps, MP3]

в форуме Российская фантастика, фэнтези, мистика, ужасы, фанфики, Размер: 307.58 МБ, Здоровье: 0%

Anonymous

0
0|0

7
0

10 сен 2016, 13:23

Anonymous Перейти к последнему сообщению

В этой теме нет новых непрочитанных сообщений. Скачать торрент Проверен Олли и сокровища пиратов / Dive Olly Dive and the Pirate Treasure (2014) DVDRip | D | лицензия

в форуме Зарубежные мультфильмы, Размер: 1.46 ГБ, Здоровье: 100%

Гость

0
47|7

142
41

10 апр 2015, 23:59

Гость Перейти к последнему сообщению

В этой теме нет новых непрочитанных сообщений. Скачать торрент Проверен Опасное погружение / Pressure (2015) HDRip | iTunes

в форуме Триллеры, Размер: 1.37 ГБ, Здоровье: 100%

Гость

0
2260|273

105
5358

17 окт 2015, 18:25

Гость Перейти к последнему сообщению

В этой теме нет новых непрочитанных сообщений. Скачать торрент Проверен Colossal Swan Dive - Colossal Swan Dive (2015) [MP3|320 кб/с]<Hard Rock, Sludge>

в форуме Рок, Панк, Метал, Альтернатива, Размер: 92.39 МБ, Здоровье: ???%

Anonymous

0
0|1

17
0

19 дек 2015, 13:37

Anonymous Перейти к последнему сообщению

В этой теме нет новых непрочитанных сообщений. Скачать торрент Проверен (AC/DC style) JC Crash (Johnny Crash) - Коллекция - 2012-2016 (3 альбома), MP3 (tracks), CBR 320 kbps

в форуме Classic Rock & Hard Rock, Размер: 339.64 МБ, Здоровье: 0%

Anonymous

0
0|0

0
0

14 ноя 2016, 22:16

Anonymous Перейти к последнему сообщению



Сейчас этот форум просматривают: нет зарегистрированных пользователей и гости: 2


Вы не можете начинать темы
Вы не можете отвечать на сообщения
Вы не можете редактировать свои сообщения
Вы не можете удалять свои сообщения
Вы не можете добавлять вложения

Перейти:  

!ВНИМАНИЕ!
 Ресурс не предоставляет электронные версии произведений, а занимается лишь коллекционированием и каталогизацией ссылок, присылаемых и публикуемых на форуме нашими читателями. Если вы являетесь правообладателем какого-либо представленного материала и не желаете чтобы ссылка на него находилась в нашем каталоге, свяжитесь с нами и мы незамедлительно удалим её. Файлы для обмена на трекере предоставлены пользователями сайта, и администрация не несёт ответственности за их содержание. Просьба не заливать файлы, защищенные авторскими правами, а также файлы нелегального содержания!