На всех торрентах на трекере установлена скидка на скачивание в размере 100 процентов(а).
 Возможность скачивания торрента НЕ зависит от ограничений при низком ратио, низком аплоаде, требуемом ратио или требуемом аплоаде.


Начать новую тему Ответить на тему
Статистика раздачи
Размер: 1.45 ГБ | Добавлен: 20 ноя 2013, 21:07 | Скачали: 0
Сидеров: 0  [0 байт/сек]    Личеров: 0  [0 байт/сек]
Пред. тема | След. тема 

Автор
Сообщение

СообщениеДобавлено: 20 ноя 2013, 21:07 

Название: Кровавое письмо
Оригинальное название: Thien Menh Anh Hung
Год выхода: 2012
Жанр: боевик
Режиссер: Виктор Ву

В ролях: Хунь Донг, Миду, Ван Транг, Кхуонг Нгок, Минь Тхуан

О фильме:
На глазах ребенка солдаты убивают всю семью. Когда мальчик подрастает и узнает историю своей семьи, он желает только одного — мстить. Но кому? Однако вскоре он узнает о существовании некоего Кровавого письма, которое, возможно, поможет ему…


Страна: Вьетнам
Студия: Saiga Films
Продолжительность: 01:43:08
Перевод: Профессиональный (двухголосый) [Нтв+]


Кодек: XviD
Качество: HDRip
Видео: 720x304, 1818 kbps, 24,000 fps, 0,346 Bits/(Pixel*Frame)
Звук: AC3, 48 kHz, 2 ch, 192 kbps
Субтитры: Нет




General
Complete name : G:Blood.Letter.2012.HDRip._by_Bathory.avi
Format : AVI
Format/Info : Audio Video Interleave
File size : 1.45 GiB
Duration : 1h 43mn
Overall bit rate : 2 019 Kbps
Writing application : VirtualDubMod 1.5.10.3 | http://www.virtualdub-fr.org || (build 2550/release)
Writing library : VirtualDubMod build 2550/release

Video
ID : 0
Format : MPEG-4 Visual
Format profile : Advanced Simple@L5
Format settings, BVOP : 1
Format settings, QPel : No
Format settings, GMC : No warppoints
Format settings, Matrix : Default (MPEG)
Codec ID : XVID
Codec ID/Hint : XviD
Duration : 1h 43mn
Bit rate : 1 818 Kbps
Width : 720 pixels
Height : 304 pixels
Display aspect ratio : 2.35:1
Frame rate : 24.000 fps
Color space : YUV
Chroma subsampling : 4:2:0
Bit depth : 8 bits
Scan type : Progressive
Compression mode : Lossy
Bits/(Pixel*Frame) : 0.346
Stream size : 1.31 GiB (90%)
Writing library : XviD 73

Audio
ID : 1
Format : AC-3
Format/Info : Audio Coding 3
Mode extension : CM (complete main)
Format settings, Endianness : Big
Codec ID : 2000
Duration : 1h 43mn
Bit rate mode : Constant
Bit rate : 192 Kbps
Channel count : 2 channels
Channel positions : Front: L R
Sampling rate : 48.0 KHz
Bit depth : 16 bits
Compression mode : Lossy
Stream size : 142 MiB (10%)
Alignment : Split accross interleaves
Interleave, duration : 42 ms (1.00 video frame)
Interleave, preload duration : 500 ms

загрузка...
Правила, инструкции, FAQ!!!
Торрент  Добавлен [20 ноя 2013, 21:07] Скачать торрент
Скачать торрент
[ Размер 15.05 КБ / Просмотров 8 ]

Статус  
 
Размер  1.45 ГБ
Приватный: Нет (DHT включён)
.torrent скачан  0
Как залить торрент? | Как скачать Torrent? | Как смотреть и слушать онлайн?  


     Отправить личное сообщение
   
Страница 1 из 1
Показать сообщения за:  Поле сортировки  
Начать новую тему Ответить на тему

   Похожие торренты   Автор   Ответы   Просмотры   Последнее сообщение 
В этой теме нет новых непрочитанных сообщений. Скачать торрент Проверен Деревянко Илья - Кровавое Шоу [Сергей Локтионов (ЛИ), 2012 г., 128 kbps, MP3]

в форуме Детектив и Боевики, Размер: 169.3 МБ, Здоровье: 0%

Anonymous

0
0|0

9
0

04 май 2016, 22:17

Anonymous Перейти к последнему сообщению

В этой теме нет новых непрочитанных сообщений. Скачать торрент Проверен Камилла Лэкберг | Письмо от русалки [2012] [FB2, EPUB, RTF, PDF]

в форуме Детективы и Боевики, Размер: 10.19 МБ, Здоровье: 100%

Anonymous

0
1|1

31
0

20 сен 2014, 21:24

Anonymous Перейти к последнему сообщению

В этой теме нет новых непрочитанных сообщений. Скачать торрент Проверен Веселые ребята - Напиши Мне Письмо (2012) [FLAC|Lossless]<Pop>

в форуме Отечественная музыка, Размер: 396.18 МБ, Здоровье: 3%

Anonymous

0
1|33

64
0

21 дек 2014, 02:13

Anonymous Перейти к последнему сообщению

В этой теме нет новых непрочитанных сообщений. Скачать торрент Проверен Письмо Дракуле / Dear Dracula (2012) HDTV 720p | D

в форуме Зарубежные мультфильмы (HD Video), Размер: 1.32 ГБ, Здоровье: 100%

Anonymous

0
36|3

89
574

06 июн 2014, 20:57

Anonymous Перейти к последнему сообщению

В этой теме нет новых непрочитанных сообщений. Скачать торрент Проверен Well Hung Heart - Young Enough To Know It All (2013) [MP3|320 кб/с]<Alternative Rock, Grunge>

в форуме Рок, Панк, Метал, Альтернатива, Размер: 84.63 МБ, Здоровье: 0%

Anonymous

0
0|0

19
0

27 июл 2014, 21:46

Anonymous Перейти к последнему сообщению



Сейчас этот форум просматривают: нет зарегистрированных пользователей и гости: 1


Вы не можете начинать темы
Вы не можете отвечать на сообщения
Вы не можете редактировать свои сообщения
Вы не можете удалять свои сообщения
Вы не можете добавлять вложения

Перейти:  

!ВНИМАНИЕ!
 Ресурс не предоставляет электронные версии произведений, а занимается лишь коллекционированием и каталогизацией ссылок, присылаемых и публикуемых на форуме нашими читателями. Если вы являетесь правообладателем какого-либо представленного материала и не желаете чтобы ссылка на него находилась в нашем каталоге, свяжитесь с нами и мы незамедлительно удалим её. Файлы для обмена на трекере предоставлены пользователями сайта, и администрация не несёт ответственности за их содержание. Просьба не заливать файлы, защищенные авторскими правами, а также файлы нелегального содержания!