На всех торрентах на трекере установлена скидка на скачивание в размере 100 процентов(а).
 Возможность скачивания торрента НЕ зависит от ограничений при низком ратио, низком аплоаде, требуемом ратио или требуемом аплоаде.


Начать новую тему Ответить на тему
Статистика раздачи
Размер: 1.46 ГБ | Добавлен: 17 ноя 2013, 23:50 | Скачали: 0
Сидеров: 0  [0 байт/сек]    Личеров: 0  [0 байт/сек]
Пред. тема | След. тема 

Автор
Сообщение

СообщениеДобавлено: 17 ноя 2013, 23:50 

«Jackie Chan in his greatest adventure ever!»



Страна: Гонконг, Югославия / Golden Harvest Company Ltd...
Жанр: боевик, комедия, приключения
Год выпуска: 1986
Продолжительность: 01:37:55
Перевод: Профессиональный (многоголосый, закадровый) студия "Омикрон"
Оригинальная аудиодорожка: нет
Субтитры: нет

Режиссер: Джеки Чан / Jackie Chan, Эрик Цан / Eric Tsang

В ролях: Джеки Чан, Алан Там, Розамунд Кван, Лола Форнер, Божидар Смилянич, Кен Бойл, Джон Ладальски, Роберт О’Брайэн, Борис Грегорич, Марсия Чишолм...

Описание: «Азиатский ястреб» - так назвали героя Джеки в Европе. Когда он похитил в Африке ритуальный меч, то не предполагал, что это начало опасных приключений. Оказывается, что меч - часть древних доспехов Бога, и если их уничтожить, то в мире будут править силы Ужаса и Зла.
Силы Зла, которые укрылись в неприступном монастыре, узнают, что у Джеки есть доступ к остальным доспехам. Они похищают девушку, которую любит Ястреб, и требуют выкупа.
Понимая, что одной ловкостью ему не справиться с полчищами бандитов, Джеки добровольно становится человеком - бомбой. Но этот козырь он приберег на самый крайний случай...





Исходник: BDRemux 1080i
Качество: BDRip
Формат: AVI

Видео: 720x384 (1.875:1), 23.976 fps, XViD ~ 1671 kbps avg, 0.252 bit/pixel
Аудио: 48 kHz, АС3 6 ch, 448 kbps, русский


General
Complete name : Dospehi.Boga.1986.P.BDRip_[Youtracker]_by_avproh.avi
Format : AVI
Format/Info : Audio Video Interleave
File size : 1.46 GiB
Duration : 1h 37mn
Overall bit rate : 2 128 Kbps
Writing application : VirtualDubModRus 1.5.10.2 (build 2542/release)
Writing library : VirtualDubMod build 2542/release

Video
ID : 0
Format : MPEG-4 Visual
Format profile : Advanced Simple@L5
Format settings, BVOP : 1
Format settings, QPel : No
Format settings, GMC : No warppoints
Format settings, Matrix : Custom
Codec ID : XVID
Codec ID/Hint : XviD
Duration : 1h 37mn
Bit rate : 1 671 Kbps
Width : 720 pixels
Height : 384 pixels
Display aspect ratio : 1.875
Frame rate : 23.976 fps
Color space : YUV
Chroma subsampling : 4:2:0
Bit depth : 8 bits
Scan type : Progressive
Compression mode : Lossy
Bits/(Pixel*Frame) : 0.252
Stream size : 1.14 GiB (79%)
Writing library : XviD 65

Audio
ID : 1
Format : AC-3
Format/Info : Audio Coding 3
Mode extension : CM (complete main)
Codec ID : 2000
Duration : 1h 37mn
Bit rate mode : Constant
Bit rate : 448 Kbps
Channel(s) : 6 channels
Channel positions : Front: L C R, Side: L R, LFE
Sampling rate : 48.0 KHz
Bit depth : 16 bits
Compression mode : Lossy
Stream size : 314 MiB (21%)
Alignment : Split accross interleaves
Interleave, duration : 42 ms (1.00 video frame)
Interleave, preload duration : 500 ms


загрузка...
Правила, инструкции, FAQ!!!
Торрент  Добавлен [17 ноя 2013, 23:50] Скачать торрент
Скачать торрент
[ Размер 15.22 КБ / Просмотров 10 ]

Статус  
 
Размер  1.46 ГБ
Приватный: Нет (DHT включён)
.torrent скачан  0
Как залить торрент? | Как скачать Torrent? | Как смотреть и слушать онлайн?  


     Отправить личное сообщение
   
Страница 1 из 1
Показать сообщения за:  Поле сортировки  
Начать новую тему Ответить на тему

   Похожие торренты   Автор   Ответы   Просмотры   Последнее сообщение 
В этой теме нет новых непрочитанных сообщений. Скачать торрент Герой / Ying Xiong (Hero) (2002) BDRip

в форуме Боевики, Размер: 1.46 ГБ, Здоровье: 0%

Anonymous

0
0|0

37
0

13 янв 2014, 13:10

Anonymous Перейти к последнему сообщению

В этой теме нет новых непрочитанных сообщений. Скачать торрент Проверен Большой Босс / The Big Boss / Tang shan da xiong (1971) BDRip [H.264/1080p]

в форуме 720p | 1080p, Размер: 15.32 ГБ, Здоровье: 14%

Гость

0
2|14

48
0

22 май 2015, 09:58

Гость Перейти к последнему сообщению

В этой теме нет новых непрочитанных сообщений. Скачать торрент Проверен Воины неба и земли / Tian di ying xiong (2003) BDRip | P2 | Лицензия

в форуме Боевики, Размер: 2.18 ГБ, Здоровье: 100%

Гость

0
122|112

80
49

08 июл 2015, 19:39

Гость Перейти к последнему сообщению

В этой теме нет новых непрочитанных сообщений. Скачать торрент Проверен Ход Бога / Одно движение Божье / God's One Move (2014) BDRip-AVC

в форуме Боевики, Размер: 2.17 ГБ, Здоровье: 100%

Гость

0
251|4

72
3270

25 дек 2014, 19:43

Гость Перейти к последнему сообщению

В этой теме нет новых непрочитанных сообщений. Скачать торрент Проверен Кин-дза-дза! (1986) BDRip [1080p] [hand made 60fps] (1986) BDRip

в форуме Кино СССР, Размер: 4.25 ГБ, Здоровье: 100%

Гость

0
266|13

86
2

06 фев 2016, 09:46

Гость Перейти к последнему сообщению



Сейчас этот форум просматривают: нет зарегистрированных пользователей и гости: 2


Вы не можете начинать темы
Вы не можете отвечать на сообщения
Вы не можете редактировать свои сообщения
Вы не можете удалять свои сообщения
Вы не можете добавлять вложения

Перейти:  

!ВНИМАНИЕ!
 Ресурс не предоставляет электронные версии произведений, а занимается лишь коллекционированием и каталогизацией ссылок, присылаемых и публикуемых на форуме нашими читателями. Если вы являетесь правообладателем какого-либо представленного материала и не желаете чтобы ссылка на него находилась в нашем каталоге, свяжитесь с нами и мы незамедлительно удалим её. Файлы для обмена на трекере предоставлены пользователями сайта, и администрация не несёт ответственности за их содержание. Просьба не заливать файлы, защищенные авторскими правами, а также файлы нелегального содержания!