На всех торрентах на трекере установлена скидка на скачивание в размере 100 процентов(а).
 Возможность скачивания торрента НЕ зависит от ограничений при низком ратио, низком аплоаде, требуемом ратио или требуемом аплоаде.


Начать новую тему Ответить на тему
Статистика раздачи
Размер: 2.18 ГБ | Добавлен: 29 авг 2013, 22:02 | Скачали: 0
Сидеров: 0  [0 байт/сек]    Личеров: 0  [0 байт/сек]
Пред. тема | След. тема 

Автор
Сообщение

СообщениеДобавлено: 29 авг 2013, 22:02 

Скала / The Rock
«Cocked, locked, and Ready to Rock!»

Страна: США / Jerry Bruckheimer Films, Hollywood Pictures
Жанр: боевик, триллер, приключения
Год выпуска: 1996
Продолжительность: 02:16:29

Перевод: Профессиональный (дублированный) лицензия BD
Cубтитры: нет
Режиссёр: Майкл Бэй / Michael Bay

В ролях: Шон Коннери / Sean Connery, Николас Кэйдж / Nicolas Cage, Эд Хэррис / Ed Harris, Джон Спенсер / John Spencer, Дэвид Морс / David Morse, Уильям Форсайт / William Forsythe, Майкл Бин / Michael Biehn, Ванесса Марсил / Vanessa Marcil, Джон К. МакГинли / John C. McGinley, Грегори Спорледер / Gregory Sporleder.

Описание: Генерал элитных диверсионных спецсил США, за плечами которого опыт чуть ли не всех войн планеты, похищает со своими лучшими подчиненными ракеты со смертоносным газом и захватывает в заложники туристов в бывшей тюрьме «Алькатрас», находящейся на острове в бухте Сан-Франциско.
Они требуют по миллиону долларов семьям погибших и кругленькую сумму себе. Для того, чтобы обезвредить группу, из тюрьмы вытаскивают британского шпиона, когда-то совершившего побег из этой тюрьмы.
Рейтинг
imdb.com: 7.30 (189 546)
kinopoisk.ru: 8.036 (54 240)
MPAA: - лицам до 17 лет обязательно присутствие взрослого
Сэмпл: http://multi-up.com/879893
Качество видео: BDRip
Формат видео: AVI

Видео: XviD build 65, 720x304 (2.37:1), 23.976 fps, ~1830 kbps avg, 0.349 bit/pixel
Аудио: 48 kHz, AC3 Dolby Digital, 3/2 (L,C,R,l,r) + LFE ch, ~448 kbps avg (Dub)

MediaInfo
General
Complete name : D\The.Rock.1996.Dub.BDRip.2,18Gb.XviD.AC3.avi
Format : AVI
Format/Info : Audio Video Interleave
Format profile : OpenDML
File size : 2.18 GiB
Duration : 2h 16mn
Overall bit rate : 2 290 Kbps
Writing application : VirtualDubModRus 1.5.10.2 (build 2542/release)
Writing library : VirtualDubMod build 2542/release

Video
ID : 0
Format : MPEG-4 Visual
Format profile : Advanced Simple@L5
Format settings, BVOP : 1
Format settings, QPel : No
Format settings, GMC : No warppoints
Format settings, Matrix : Custom
Codec ID : XVID
Codec ID/Hint : XviD
Duration : 2h 16mn
Bit rate : 1 830 Kbps
Width : 720 pixels
Height : 304 pixels
Display aspect ratio : 2.35:1
Frame rate : 23.976 fps
Color space : YUV
Chroma subsampling : 4:2:0
Bit depth : 8 bits
Scan type : Progressive
Compression mode : Lossy
Bits/(Pixel*Frame) : 0.349
Stream size : 1.74 GiB (80%)
Writing library : XviD 65

Audio
ID : 1
Format : AC-3
Format/Info : Audio Coding 3
Mode extension : CM (complete main)
Format settings, Endianness : Big
Codec ID : 2000
Duration : 2h 16mn
Bit rate mode : Constant
Bit rate : 448 Kbps
Channel(s) : 6 channels
Channel positions : Front: L C R, Side: L R, LFE
Sampling rate : 48.0 KHz
Bit depth : 16 bits
Compression mode : Lossy
Stream size : 437 MiB (20%)
Alignment : Split accross interleaves
Interleave, duration : 42 ms (1.00 video frame)
Interleave, preload duration : 500 ms
Title : Dub
Скриншоты
загрузка...
Правила, инструкции, FAQ!!!
Торрент  Добавлен [29 авг 2013, 22:02] Скачать торрент
Скачать торрент
[ Размер 11.41 КБ / Просмотров 4 ]

Статус  
 
Размер  2.18 ГБ
Приватный: Нет (DHT включён)
.torrent скачан  0
Как залить торрент? | Как скачать Torrent? | Как смотреть и слушать онлайн?  


     Отправить личное сообщение
   
Страница 1 из 1
Показать сообщения за:  Поле сортировки  
Начать новую тему Ответить на тему

   Похожие торренты   Автор   Ответы   Просмотры   Последнее сообщение 
В этой теме нет новых непрочитанных сообщений. Скачать торрент Трансформеры / Transformers (Майкл Бэй / Michael Bay) [2007, США, Боевик, Приключения, Фантастика, Триллер, HDRip]

в форуме Боевики, Размер: 976.63 МБ, Здоровье: 100%

Anonymous

0
2|1

92
0

17 фев 2014, 08:06

Anonymous Перейти к последнему сообщению

В этой теме нет новых непрочитанных сообщений. Скачать торрент Трансформеры / Transformers (Майкл Бэй / Michael Bay) [2007 г., Боевик, Приключения, Фантастика, Триллер, HDRip] Dub

в форуме Боевики, Размер: 2.18 ГБ, Здоровье: 100%

Anonymous

0
56|19

135
0

17 май 2014, 20:05

Anonymous Перейти к последнему сообщению

В этой теме нет новых непрочитанных сообщений. Скачать торрент Трансформеры: Месть падших / Transformers: Revenge of the Fallen (Майкл Бэй / Michael Bay) [2009, США, фантастика, боевик, приключения, BDRip-AVC]

в форуме 720p | 1080p, Размер: 5.26 ГБ, Здоровье: 100%

Anonymous

0
18|6

110
0

17 фев 2014, 11:44

Anonymous Перейти к последнему сообщению

В этой теме нет новых непрочитанных сообщений. Скачать торрент Проверен [iPhone] Джеймс Бонд. Агент 007: И целого мира мало / James Bond: The World Is Not Enough (Майкл Эптид / Michael Apted) [1999, Боевик, триллер, криминал, приключения, HDRip, 480x200]

в форуме Фильмы для iPod, iPhone, iPad, Размер: 711.92 МБ, Здоровье: 100%

Anonymous

0
8|3

47
0

14 май 2015, 00:03

Anonymous Перейти к последнему сообщению

В этой теме нет новых непрочитанных сообщений. Скачать торрент Проверен [iPad] Кибер / Blackhat (Майкл Манн / Michael Mann ) [2015, США, Боевик, триллер, драма, криминал, детектив, BDRip, SD (576p)] DUB + Original + sub (eng)

в форуме Фильмы для iPod, iPhone, iPad, Размер: 2.35 ГБ, Здоровье: 100%

Гость

0
94|18

118
2

11 май 2015, 01:25

Гость Перейти к последнему сообщению



Сейчас этот форум просматривают: нет зарегистрированных пользователей и гости: 1


Вы не можете начинать темы
Вы не можете отвечать на сообщения
Вы не можете редактировать свои сообщения
Вы не можете удалять свои сообщения
Вы не можете добавлять вложения

Перейти:  

!ВНИМАНИЕ!
 Ресурс не предоставляет электронные версии произведений, а занимается лишь коллекционированием и каталогизацией ссылок, присылаемых и публикуемых на форуме нашими читателями. Если вы являетесь правообладателем какого-либо представленного материала и не желаете чтобы ссылка на него находилась в нашем каталоге, свяжитесь с нами и мы незамедлительно удалим её. Файлы для обмена на трекере предоставлены пользователями сайта, и администрация не несёт ответственности за их содержание. Просьба не заливать файлы, защищенные авторскими правами, а также файлы нелегального содержания!