На всех торрентах на трекере установлена скидка на скачивание в размере 100 процентов(а).
 Возможность скачивания торрента НЕ зависит от ограничений при низком ратио, низком аплоаде, требуемом ратио или требуемом аплоаде.


Начать новую тему Ответить на тему
Статистика раздачи
Размер: 1.46 ГБ | Добавлен: 27 июл 2013, 12:55 | Скачали: 1
Сидеров: 0  [0 байт/сек]    Личеров: 0  [0 байт/сек]
Пред. тема | След. тема 

Автор
Сообщение

СообщениеДобавлено: 27 июл 2013, 12:55 

«Too much sugar can kill you.»



Страна: США / Magic Violet
Год выпуска: 2013
Продолжительность: 01:24:32
Жанр: боевик, триллер, драма, комедия, криминал

Перевод: Профессиональный (дублированный)
Оригинальная аудиодорожка: нет
Субтитры: нет

Режиссер: Джеффри Флетчер / Geoffrey Fletcher

В ролях: Сирша Ронан, Алексис Бледел, Джеймс Гандольфини, Марианн Жан-Баптист, Дэнни Трехо, Татьяна Маслани, Джон Вентимилья, Стю «Ладж» Райли, Невилл Арчамбо, Кристофер Джон Гомбос...

Описание: Две подружки — Фиалка и Маргаритка — плевать хотели на всякие там законы и правила. Если они чего-нибудь хотят, то обязательно это получат, даже если ради этого придется кого-нибудь убить. Кстати, именно такой способ заработать кажется девчонкам довольно простым — но до поры до времени…






Исходник: DVD5 R5
Качество: DVDRip
Формат: AVI

Видео: 720x400 (16:9), 25.000 fps, XViD ~ 2074 kbps avg, 0.288 bit/pixel
Аудио: 48 kHz, АС3 6 ch, 384 kbps, русский

Раздача от:
Общее
Полное имя : Violet.i.Deyzi.2013.P.DVDRip_[Youtracker]_by_avproh.avi
Формат : AVI
Формат/Информация : Audio Video Interleave
Размер файла : 1,46 Гбайт
Продолжительность : 1 ч. 24 м.
Общий поток : 2467 Кбит/сек
Программа кодирования : VirtualDubMod 1.5.10.3 | http:/www.virtualdub-fr.org || (build 2550/release)
Библиотека кодирования : VirtualDubMod build 2550/release

Видео
Идентификатор : 0
Формат : MPEG-4 Visual
Профиль формата : Advanced Simple@L5
Параметр BVOP формата : 1
Параметр QPel формата : Нет
Параметр GMC формата : Без точки перехода
Параметр матрицы формата : Выборочная
Идентификатор кодека : XVID
Идентификатор кодека/Подсказка : XviD
Продолжительность : 1 ч. 24 м.
Битрейт : 2074 Кбит/сек
Ширина : 720 пикселей
Высота : 400 пикселей
Соотношение сторон : 16:9
Частота кадров : 25,000 кадров/сек
Цветовое пространство : YUV
Субдискретизация насыщенности : 4:2:0
Битовая глубина : 8 бит
Тип развёртки : Прогрессивная
Метод сжатия : С потерями
Бит/(Пиксели*Кадры) : 0.288
Размер потока : 1,22 Гбайт (84%)
Библиотека кодирования : XviD 65

Аудио
Идентификатор : 1
Формат : AC-3
Формат/Информация : Audio Coding 3
Расширение режима : CM (complete main)
Параметр Endianness формата : Big
Идентификатор кодека : 2000
Продолжительность : 1 ч. 24 м.
Вид битрейта : Постоянный
Битрейт : 384 Кбит/сек
Каналы : 6 каналов
Расположение каналов : Front: L C R, Side: L R, LFE
Частота : 48,0 КГц
Битовая глубина : 16 бит
Метод сжатия : С потерями
Размер потока : 232 Мбайт (16%)
Выравнивание : Разделение по промежуткам
Продолжительность промежутка : 40 мс. (1,00 видеокадр)
Время предзагрузки промежутка : 500 мс.


загрузка...
Правила, инструкции, FAQ!!!
Торрент  Добавлен [27 июл 2013, 12:55] Скачать торрент
Скачать торрент
[ Размер 15.11 КБ / Просмотров 5 ]

Статус  
 
Размер  1.46 ГБ
Приватный: Нет (DHT включён)
.torrent скачан  1
Как залить торрент? | Как скачать Torrent? | Как смотреть и слушать онлайн?  


     Отправить личное сообщение
   
Страница 1 из 1
Показать сообщения за:  Поле сортировки  
Начать новую тему Ответить на тему

   Похожие торренты   Автор   Ответы   Просмотры   Последнее сообщение 
В этой теме нет новых непрочитанных сообщений. Скачать торрент Проверен Виолет и Дейзи / Violet & Daisy (2012) BDRip [576p] iPad

в форуме Фильмы для iPod, iPhone, iPad, Размер: 1.5 ГБ, Здоровье: 100%

Anonymous

0
1|1

16
0

13 дек 2014, 00:11

Anonymous Перейти к последнему сообщению

В этой теме нет новых непрочитанных сообщений. Скачать торрент Проверен [iPad] Виолет и Дейзи / Violet & Daisy (Джеффри Флетчер / Geoffrey Fletcher ) [2012, США, Драма, криминал, BDRip, SD (576p)] DUB + Original + sub (rus, eng)

в форуме Фильмы для iPod, iPhone, iPad, Размер: 1.5 ГБ, Здоровье: 100%

Гость

0
3|1

39
0

18 май 2015, 10:49

Гость Перейти к последнему сообщению

В этой теме нет новых непрочитанных сообщений. Скачать торрент Проверен (Hard rock) Daisy's Dead - Daisy's Dead - 2007, MP3 (tracks), 256 kbps

в форуме Classic Rock & Hard Rock, Размер: 60.9 МБ, Здоровье: 0%

Anonymous

0
0|0

0
0

13 ноя 2016, 12:40

Anonymous Перейти к последнему сообщению

В этой теме нет новых непрочитанных сообщений. Скачать торрент Проверен (Garage Blues Rock) Violet Highway - Violet Highway (debut EP) - 2015, MP3, 320 kbps

в форуме Classic Rock & Hard Rock, Размер: 45.01 МБ, Здоровье: 0%

Anonymous

0
0|0

0
0

13 ноя 2016, 21:37

Anonymous Перейти к последнему сообщению

В этой теме нет новых непрочитанных сообщений. Скачать торрент Проверен Kitty, Daisy & Lewis - Kitty, Daisy & Lewis (2009) [FLAC|tracks+.cue]<Rock & Roll, Ska, Rockabilly>

в форуме Рок, Панк, Метал, Альтернатива, Размер: 260.3 МБ, Здоровье: 100%

Гость

0
6|1

37
0

06 июн 2015, 13:01

Гость Перейти к последнему сообщению



Сейчас этот форум просматривают: нет зарегистрированных пользователей и гости: 1


Вы не можете начинать темы
Вы не можете отвечать на сообщения
Вы не можете редактировать свои сообщения
Вы не можете удалять свои сообщения
Вы не можете добавлять вложения

Перейти:  

!ВНИМАНИЕ!
 Ресурс не предоставляет электронные версии произведений, а занимается лишь коллекционированием и каталогизацией ссылок, присылаемых и публикуемых на форуме нашими читателями. Если вы являетесь правообладателем какого-либо представленного материала и не желаете чтобы ссылка на него находилась в нашем каталоге, свяжитесь с нами и мы незамедлительно удалим её. Файлы для обмена на трекере предоставлены пользователями сайта, и администрация не несёт ответственности за их содержание. Просьба не заливать файлы, защищенные авторскими правами, а также файлы нелегального содержания!