На всех торрентах на трекере установлена скидка на скачивание в размере 100 процентов(а).
 Возможность скачивания торрента НЕ зависит от ограничений при низком ратио, низком аплоаде, требуемом ратио или требуемом аплоаде.


Начать новую тему Ответить на тему
Статистика раздачи
Размер: 3.82 ГБ | Добавлен: 16 янв 2015, 17:39 | Скачали: 1
Сидеров: 0  [0 байт/сек]    Личеров: 0  [0 байт/сек]
Пред. тема | След. тема 

Автор
Сообщение

СообщениеДобавлено: 16 янв 2015, 17:39 

Производство: Гонконг / Emperor Motion Pictures, JCE Movies, Huayi Brothers Media
Жанр: боевик, драма, комедия

Режиссер: Бенни Чан
Сценарий: Алань Юйэнь, Джеки Чан, Бенни Чан
Продюсер: Бенни Чан, Солон Со, Чжунлэй Ван
Актеры: Джеки Чан, Майкл Хюи, Луис Ку, Чарлин Чой, Юэнь Бяо, Гао Юаньюань, Тереза Карпио, Теренс Йин, Конвой Чан Чи-Чун, Хой Линь

Описание:
Для бездельника и игрока Тонгза есть только одна вещь пострашнее кредиторов под дверью — плачущий младенец. Но что если этот самый ребенок способен сделать его богатым? Сумеет ли Тонгз преодолеть свой панический страх перед памперсами, бутылочками со смесью и заунывными колыбельными...

Перевод: Двухголосый закадровый
Вид субтитров: Вшитые отключаемые
Язык субтитров: Английский



Дата мировой премьеры: 8 сентября 2006
Дата DVD релиза: 11 октября 2007, «CP-Digital»
Дата Blu-ray релиза: 28 октября 2008, Splendid Entertainment (GER)
Рейтинг MPAA: PG-13
Возраст: 12+

Продолжительность: 02:06:15
Качество: BDRip (AVC)

Видео: MPEG-4 AVC/H.264, 1024x576 (16:9), 3 344 kbps, 23.976 fps
Аудио #1: Русский - AC3 / 5.1 / 448 Kbps / 48.0 KHz - Двухголосый закадровый (Гланц и Королева)
Аудио #2: Английский - AC3 / 5.1 / 448 Kbps / 48.0 KHz - Дублированный
Код:
Код:
General
Unique ID                   : 172458089774276372179231649979498317783 (0x81BE384CFE0AF7C18B225CFEA3A547D7)
Complete name               : C:\DOWNLOAD\Bo.bui.gai.wak.2006.BDRip.576p.P2.NNM.mkv
Format                      : Matroska
Format version              : Version 4 / Version 2
File size                   : 3.82 GiB
Duration                    : 2h 6mn
Overall bit rate            : 4 326 Kbps
Movie name                  : Bo bui gai wak (2006)
Encoded date                : UTC 2015-01-16 08:44:33
Writing application         : mkvmerge v7.5.0 ('Glass Culture') 64bit built on Jan  4 2015 16:48:44
Writing library             : libebml v1.3.1 + libmatroska v1.4.2
DURATION                    : 02:05:19.888000000
NUMBER_OF_FRAMES            : 1236
NUMBER_OF_BYTES             : 40755
_STATISTICS_WRITING_APP     : mkvmerge v7.5.0 ('Glass Culture') 64bit built on Jan  4 2015 16:48:44
_STATISTICS_WRITING_DATE_UT : 2015-01-16 08:44:33
_STATISTICS_TAGS            : BPS DURATION NUMBER_OF_FRAMES NUMBER_OF_BYTES

Video
ID                          : 1
Format                      : AVC
Format/Info                 : Advanced Video Codec
Format profile              :
Format settings, CABAC      : Yes
Format settings, ReFrames   : 9 frames
Codec ID                    : V_MPEG4/ISO/AVC
Duration                    : 2h 6mn
Bit rate                    : 3 344 Kbps
Width                       : 1 024 pixels
Height                      : 576 pixels
Display aspect ratio        : 16:9
Frame rate mode             : Constant
Frame rate                  : 23.976 fps
Color space                 : YUV
Chroma subsampling          : 4:2:0
Bit depth                   : 8 bits
Scan type                   : Progressive
Bits/(Pixel*Frame)          : 0.236
Stream size                 : 2.95 GiB (77%)
Title                       : Bo bui gai wak (2006)
Language                    : Chinese
Default                     : Yes
Forced                      : No
Color primaries             : BT.709
Transfer characteristics    : BT.709
Matrix coefficients         : BT.709
Color range                 : Limited
DURATION                    : 02:06:28.623000000
NUMBER_OF_FRAMES            : 181945
NUMBER_OF_BYTES             : 3258539712
_STATISTICS_WRITING_APP     : mkvmerge v7.5.0 ('Glass Culture') 64bit built on Jan  4 2015 16:48:44
_STATISTICS_WRITING_DATE_UT : 2015-01-16 08:44:33
_STATISTICS_TAGS            : BPS DURATION NUMBER_OF_FRAMES NUMBER_OF_BYTES

Audio #1
ID                          : 2
Format                      : AC-3
Format/Info                 : Audio Coding 3
Mode extension              : CM (complete main)
Format settings, Endianness : Big
Codec ID                    : A_AC3
Duration                    : 2h 6mn
Bit rate mode               : Constant
Bit rate                    : 448 Kbps
Channel(s)                  : 6 channels
Channel positions           : Front: L C R, Side: L R, LFE
Sampling rate               : 48.0 KHz
Bit depth                   : 16 bits
Compression mode            : Lossy
Stream size                 : 405 MiB (10%)
Title                       : DVO [Glanz & Koroleva]
Language                    : Russian
Default                     : Yes
Forced                      : No

Audio #2
ID                          : 3
Format                      : AC-3
Format/Info                 : Audio Coding 3
Mode extension              : CM (complete main)
Format settings, Endianness : Big
Codec ID                    : A_AC3
Duration                    : 2h 6mn
Bit rate mode               : Constant
Bit rate                    : 448 Kbps
Channel(s)                  : 6 channels
Channel positions           : Front: L C R, Side: L R, LFE
Sampling rate               : 48.0 KHz
Bit depth                   : 16 bits
Compression mode            : Lossy
Stream size                 : 405 MiB (10%)
Title                       : DUB
Language                    : English
Default                     : No
Forced                      : No

Text
ID                          : 4
Format                      : UTF-8
Codec ID                    : S_TEXT/UTF8
Codec ID/Info               : UTF-8 Plain Text
Language                    : English
Default                     : Yes
Forced                      : No
Код:
Код:
x264 [info]: frame I:1311  Avg QP:16.88  size:106172
x264 [info]: frame P:43368 Avg QP:20.03  size: 33799
x264 [info]: frame B:137266 Avg QP:20.85  size: 12046
x264 [info]: consecutive B-frames:  2.6%  4.6% 11.4% 19.6% 23.6% 35.0%  2.3%  0.5%  0.3%  0.1%  0.0%  0.0%  0.0%
x264 [info]: mb I  I16..4:  9.2% 70.0% 20.8%
x264 [info]: mb P  I16..4:  0.9% 12.8%  1.8%  P16..4: 32.0% 36.1% 11.9%  2.1%  0.3%    skip: 2.1%
x264 [info]: mb B  I16..4:  0.1%  2.0%  0.2%  B16..8: 37.2% 19.5%  2.8%  direct: 7.6%  skip:30.6%  L0:39.0% L1:45.2% BI:15.8%
x264 [info]: 8x8 transform intra:82.3% inter:57.6%
x264 [info]: coded y,uvDC,uvAC intra: 95.1% 92.7% 78.0% inter: 26.0% 38.3% 22.7%
x264 [info]: i16 v,h,dc,p: 26% 12%  9% 53%
x264 [info]: i8 v,h,dc,ddl,ddr,vr,hd,vl,hu:  9%  7%  7% 10% 15% 14% 13% 12% 13%
x264 [info]: i4 v,h,dc,ddl,ddr,vr,hd,vl,hu: 12%  9%  3%  9% 16% 15% 14% 11% 12%
x264 [info]: i8c dc,h,v,p: 45% 18% 18% 20%
x264 [info]: Weighted P-Frames: Y:1.6% UV:0.5%
x264 [info]: ref P L0: 48.4% 10.7% 17.8%  5.9%  5.4%  3.7%  3.6%  1.9%  2.1%  0.4%  0.0%
x264 [info]: ref B L0: 80.9%  9.1%  3.9%  2.1%  1.5%  1.3%  0.8%  0.3%
x264 [info]: ref B L1: 95.1%  4.9%
x264 [info]: kb/s:3435.18
Скриншоты:



Время раздачи: 24/7, до 5 скачавших.
загрузка...
Правила, инструкции, FAQ!!!
Торрент  Добавлен [16 янв 2015, 17:39] Скачать торрент
Скачать торрент
[ Размер 19.83 КБ / Просмотров 10 ]

Статус
Проверен 
 
Размер  3.82 ГБ
Приватный: Нет (DHT включён)
.torrent скачан  1
Как залить торрент? | Как скачать Torrent? | Как смотреть и слушать онлайн?  


     Отправить личное сообщение
   
Страница 1 из 1
Показать сообщения за:  Поле сортировки  
Начать новую тему Ответить на тему

   Похожие торренты   Автор   Ответы   Просмотры   Последнее сообщение 
В этой теме нет новых непрочитанных сообщений. Скачать торрент Проверен Младенец на $30 000 000 / Bo bui gai wak (2006) BDRip | P

в форуме Боевики, Размер: 1.45 ГБ, Здоровье: 100%

Гость

0
22|2

82
15

17 ноя 2016, 22:27

Гость Перейти к последнему сообщению

В этой теме нет новых непрочитанных сообщений. Скачать торрент Проверен [iPhone] Младенец на $30 000 000/Робин Гуд/Сокровище в пеленках / Rob-b-Hood/Bo bui gai wak (Бенни Чан) [2006 г., боевик, комедия, драма, DVDRip]

в форуме Фильмы для iPod, iPhone, iPad, Размер: 987.59 МБ, Здоровье: 100%

Гость

0
5|3

104
1

18 май 2015, 10:33

Гость Перейти к последнему сообщению

В этой теме нет новых непрочитанных сообщений. Скачать торрент Проверен Младенец в подарок / Expecting (2013) WEB-DLRip | P

в форуме Драмы, Мелодрамы, Размер: 1.37 ГБ, Здоровье: 100%

Anonymous

0
39|1

26
92

22 май 2014, 06:22

Anonymous Перейти к последнему сообщению

В этой теме нет новых непрочитанных сообщений. Скачать торрент Младенец на прогулке, или Ползком от гангстеров / Baby's Day Out (1994) HDTVRip-AVC

в форуме 720p | 1080p, Размер: 1.46 ГБ, Здоровье: 100%

Anonymous

0
30|1

35
423

24 янв 2014, 18:40

Anonymous Перейти к последнему сообщению

В этой теме нет новых непрочитанных сообщений. Скачать торрент Проверен Младенец в подарок / Expecting (2013) WEB-DL 1080p | Чистый звук

в форуме 720p | 1080p, Размер: 3.61 ГБ, Здоровье: 100%

Anonymous

0
19|0

36
30

30 май 2014, 22:25

Anonymous Перейти к последнему сообщению



Сейчас этот форум просматривают: нет зарегистрированных пользователей и гости: 1


Вы не можете начинать темы
Вы не можете отвечать на сообщения
Вы не можете редактировать свои сообщения
Вы не можете удалять свои сообщения
Вы не можете добавлять вложения

Перейти:  

!ВНИМАНИЕ!
 Ресурс не предоставляет электронные версии произведений, а занимается лишь коллекционированием и каталогизацией ссылок, присылаемых и публикуемых на форуме нашими читателями. Если вы являетесь правообладателем какого-либо представленного материала и не желаете чтобы ссылка на него находилась в нашем каталоге, свяжитесь с нами и мы незамедлительно удалим её. Файлы для обмена на трекере предоставлены пользователями сайта, и администрация не несёт ответственности за их содержание. Просьба не заливать файлы, защищенные авторскими правами, а также файлы нелегального содержания!