На всех торрентах на трекере установлена скидка на скачивание в размере 100 процентов(а).
 Возможность скачивания торрента НЕ зависит от ограничений при низком ратио, низком аплоаде, требуемом ратио или требуемом аплоаде.


Начать новую тему Ответить на тему
Статистика раздачи
Размер: 1.74 ГБ | Добавлен: 12 янв 2015, 00:36 | Скачали: 0
Сидеров: 0  [0 байт/сек]    Личеров: 0  [0 байт/сек]
Пред. тема | След. тема 

Автор
Сообщение

СообщениеДобавлено: 12 янв 2015, 00:36 

Производство: США
Жанр: Боевик, триллер, драма, криминал

Режиссер: Джон Бэдэм
Актеры: Джонни Депп, Кортни Чейз, Чарльз С. Даттон, Кристофер Уокен, Рома Маффиа, Марша Мейсон, Питер Штраусс, Глория Рубен, Билл Смитрович, Г.Д. Спрэдлин

Описание фильма:
Представьте себе, что вы — скромный бухгалтер, у вас — шестилетняя дочь, и вы только что сошли с поезда в чужом городе. В этот самый момент с вами и случается кошмар, который не привидится даже в самом страшном сне. Вашего ребенка похищают таинственные незнакомцы, которые обещают расправиться с девочкой, если вы не выполните их условие. Условие простое: вы должны застрелить члена правительства из предложенного похитителями оружия. За вами постоянно наблюдают. У вас девяносто минут времени и шесть пуль в барабане револьвера. Время пошло!

Перевод: Профессиональный многоголосый



Продолжительность: 01:25:12
Качество видео: DVDRip

Видеокодек: XviD
Битрейт видео: ~2400 Кбит/с
Размер кадра: 720x400
Аудио:
1. MP3, 2 ch, 128 Кбит/с - русский
2. AC3, 6 ch, 384 Кбит/с - английский

Общее
Полное имя : C:\NNM\В последний момент\V poslednij moment 1995 DVDRip.avi
Формат : AVI
Формат/Информация : Audio Video Interleave
Размер файла : 1,74 Гбайт
Продолжительность : 1 ч. 25 м.
Общий поток : 2926 Кбит/сек
Программа кодирования : VirtualDubModRus 1.5.10.2 (build 2542/release)
Библиотека кодирования : VirtualDubMod build 2542/release

Видео
Идентификатор : 0
Формат : MPEG-4 Visual
Профиль формата : Advanced Simple@L5
Параметр BVOP формата : 1
Параметр QPel формата : Нет
Параметр GMC формата : Без точки перехода
Параметр матрицы формата : Default (H.263)
Идентификатор кодека : XVID
Идентификатор кодека/Подсказка : XviD
Продолжительность : 1 ч. 25 м.
Битрейт : 2400 Кбит/сек
Ширина : 720 пикселей
Высота : 400 пикселей
Соотношение сторон : 16:9
Частота кадров : 25,000 кадров/сек
Цветовое пространство : YUV
Субдискретизация насыщенности : 4:2:0
Битовая глубина : 8 бит
Тип развёртки : Прогрессивная
Метод сжатия : С потерями
Бит/(Пиксели*Кадры) : 0.333
Размер потока : 1,43 Гбайт (82%)
Библиотека кодирования : XviD 1.2.0.dev47 (UTC 2006-11-01)

Аудио #1
Идентификатор : 1
Формат : MPEG Audio
Версия формата : Version 1
Профиль формата : Layer 3
Режим : Joint stereo
Расширение режима : MS Stereo
Идентификатор кодека : 55
Идентификатор кодека/Подсказка : MP3
Продолжительность : 1 ч. 25 м.
Вид битрейта : Постоянный
Битрейт : 128 Кбит/сек
Каналы : 2 канала
Частота : 48,0 КГц
Метод сжатия : С потерями
Размер потока : 78,0 Мбайт (4%)
Выравнивание : Соединение по промежуткам
Продолжительность промежутка : 40 мс. (1,00 видеокадр)
Время предзагрузки промежутка : 504 мс.

Аудио #2
Идентификатор : 2
Формат : AC-3
Формат/Информация : Audio Coding 3
Расширение режима : CM (complete main)
Идентификатор кодека : 2000
Продолжительность : 1 ч. 25 м.
Вид битрейта : Постоянный
Битрейт : 384 Кбит/сек
Каналы : 6 каналов
Расположение каналов : Front: L C R, Side: L R, LFE
Частота : 48,0 КГц
Битовая глубина : 16 бит
Метод сжатия : С потерями
Размер потока : 234 Мбайт (13%)
Выравнивание : Разделение по промежуткам
Продолжительность промежутка : 40 мс. (1,00 видеокадр)
Время предзагрузки промежутка : 500 мс.
загрузка...
Правила, инструкции, FAQ!!!
Торрент  Добавлен [12 янв 2015, 00:36] Скачать торрент
Скачать торрент
[ Размер 18.12 КБ / Просмотров 25 ]

Статус
Проверен 
 
Размер  1.74 ГБ
Приватный: Нет (DHT включён)
.torrent скачан  0
Как залить торрент? | Как скачать Torrent? | Как смотреть и слушать онлайн?  


     Отправить личное сообщение
   
Страница 1 из 1
Показать сообщения за:  Поле сортировки  
Начать новую тему Ответить на тему

   Похожие торренты   Автор   Ответы   Просмотры   Последнее сообщение 
В этой теме нет новых непрочитанных сообщений. Скачать торрент Проверен В последний раз / The Last Time (2006) DVDRip | P

в форуме Триллеры, Размер: 2.85 ГБ, Здоровье: 100%

Гость

0
29|16

348
66

07 авг 2016, 09:38

Гость Перейти к последнему сообщению

В этой теме нет новых непрочитанных сообщений. Скачать торрент Проверен (HardCore/PunkRock) The Unsubs - Последний момент - 2008, MP3 (tracks), 320 kbps

в форуме Русский Рок, Размер: 95.36 МБ, Здоровье: ???%

Anonymous

0
0|1

6
0

22 авг 2016, 02:24

Anonymous Перейти к последнему сообщению

В этой теме нет новых непрочитанных сообщений. Скачать торрент Этот неловкий момент / That Awkward Moment (2014) DVDRip | Лицензия

в форуме Драмы, Мелодрамы, Размер: 1.37 ГБ, Здоровье: 100%

Anonymous

0
3355|85

75
46599

20 апр 2014, 21:04

Anonymous Перейти к последнему сообщению

В этой теме нет новых непрочитанных сообщений. Скачать торрент Крутящий момент / Torque (Джозеф Кан / Joseph Kahn) [2004 г., Боевик, Приключения, DVDRip] Dub

в форуме Боевики, Размер: 745.6 МБ, Здоровье: 100%

Anonymous

0
1|0

81
0

22 апр 2014, 11:40

Anonymous Перейти к последнему сообщению

В этой теме нет новых непрочитанных сообщений. Скачать торрент Bonnie Raitt - Nick of Time (1989) [DTS CD from DVD-Audio] <blues rock>

в форуме DTS CD / SACD-R, Размер: 431.53 МБ, Здоровье: ???%

Anonymous

0
0|6

104
0

21 мар 2014, 13:55

Anonymous Перейти к последнему сообщению



Сейчас этот форум просматривают: нет зарегистрированных пользователей и гости: 1


Вы не можете начинать темы
Вы не можете отвечать на сообщения
Вы не можете редактировать свои сообщения
Вы не можете удалять свои сообщения
Вы не можете добавлять вложения

Перейти:  

!ВНИМАНИЕ!
 Ресурс не предоставляет электронные версии произведений, а занимается лишь коллекционированием и каталогизацией ссылок, присылаемых и публикуемых на форуме нашими читателями. Если вы являетесь правообладателем какого-либо представленного материала и не желаете чтобы ссылка на него находилась в нашем каталоге, свяжитесь с нами и мы незамедлительно удалим её. Файлы для обмена на трекере предоставлены пользователями сайта, и администрация не несёт ответственности за их содержание. Просьба не заливать файлы, защищенные авторскими правами, а также файлы нелегального содержания!