На всех торрентах на трекере установлена скидка на скачивание в размере 100 процентов(а).
 Возможность скачивания торрента НЕ зависит от ограничений при низком ратио, низком аплоаде, требуемом ратио или требуемом аплоаде.


Начать новую тему Ответить на тему
Статистика раздачи
Размер: 1.46 ГБ | Добавлен: 09 янв 2015, 23:42 | Скачали: 0
Сидеров: 0  [0 байт/сек]    Личеров: 0  [0 байт/сек]
Пред. тема | След. тема 

Автор
Сообщение

СообщениеДобавлено: 09 янв 2015, 23:42 

Производство: Китай, Гонконг
Жанр: Боевик, Триллер

Описание фильма:
Бывший полицейский инструктор по боевым искусствам заключен в тюрьму после того, как случайно убил человека. Когда объявляется серийный убийца специализирующийся на мастерах боевых искусств, он предлагает помощь полиции в обмен на свою свободу.

Режиссер: Тедди Чан
Актеры: Донни Ен, Ван Баоцян, Чарли Енг, Бин Бай, Дэвид Чианг, Алекс Фонг, Юй Син, Фан Сю-Вонг, Рэйден Интегра, Бей Логан



Продолжительность: 01:40:01
Качество видео: HDRip-AVC

Перевод: Одноголосый закадровый [Zames]
Cубтитры: Отсутствуют

Дата мировой премьеры: 12 октября 2014

Видеокодек: MPEG-4 AVC
Битрейт видео: ~1900 kb/s
Размер кадра: 1024х428
Аудио : AC3, 2 каналов, 192 Кбит/сек
Формат : Matroska
Версия формата : Version 4 / Version 2
Размер файла : 1,46 Гбайт
Продолжительность : 1 ч. 39 м.
Общий поток : 2096 Кбит/сек
Название фильма : Poslednij.iz.luchshih2014.HDRip-AVC [Tellurian 1]
Дата кодирования : UTC 2015-01-05 09:08:02
Программа кодирования : mkvmerge v7.2.0 ('On Every Street') 64bit built on Sep 13 2014 15:52:10
Библиотека кодирования : libebml v1.3.0 + libmatroska v1.4.1
DURATION : 01:39:50.112000000
NUMBER_OF_FRAMES : 187191
NUMBER_OF_BYTES : 143762688
_STATISTICS_WRITING_APP : mkvmerge v7.2.0 ('On Every Street') 64bit built on Sep 13 2014 15:52:10
_STATISTICS_WRITING_DATE_UTC : 2015-01-05 09:08:02
_STATISTICS_TAGS : BPS DURATION NUMBER_OF_FRAMES NUMBER_OF_BYTES

Видео
Идентификатор : 1
Формат : AVC
Формат/Информация : Advanced Video Codec
Профиль формата :
Параметр CABAC формата : Да
Параметр ReFrames формата : 7 кадров
Идентификатор кодека : V_MPEG4/ISO/AVC
Продолжительность : 1 ч. 39 м.
Битрейт : 1900 Кбит/сек
Ширина : 1024 пикселя
Высота : 428 пикселей
Соотношение сторон : 2,40:1
Режим частоты кадров : Постоянный
Частота кадров : 24,000 кадра/сек
Цветовое пространство : YUV
Субдискретизация насыщенности : 4:2:0
Битовая глубина : 8 бит
Тип развёртки : Прогрессивная
Бит/(Пиксели*Кадры) : 0.181
Размер потока : 1,30 Гбайт (89%)
Библиотека кодирования : x264 core 142 r2431 ac76440
Настройки программы : cabac=1 / ref=7 / deblock=1:-3:-3 / analyse=0x3:0x133 / me=umh / subme=11 / psy=1 / psy_rd=1.00:0.08 / mixed_ref=1 / me_range=32 / chroma_me=1 / trellis=2 / 8x8dct=1 / cqm=0 / deadzone=21,11 / fast_pskip=0 / chroma_qp_offset=-3 / threads=6 / lookahead_threads=1 / sliced_threads=0 / nr=0 / decimate=0 / interlaced=0 / bluray_compat=0 / constrained_intra=0 / bframes=10 / b_pyramid=2 / b_adapt=2 / b_bias=0 / direct=3 / weightb=1 / open_gop=0 / weightp=2 / keyint=240 / keyint_min=24 / scenecut=40 / intra_refresh=0 / rc_lookahead=60 / rc=2pass / mbtree=1 / bitrate=1900 / ratetol=1.0 / qcomp=0.70 / qpmin=0 / qpmax=69 / qpstep=4 / cplxblur=20.0 / qblur=0.5 / vbv_maxrate=50000 / vbv_bufsize=62500 / nal_hrd=none / filler=0 / ip_ratio=1.40 / aq=1:0.80
Default : Да
Forced : Нет

Аудио
Идентификатор : 2
Формат : AC-3
Формат/Информация : Audio Coding 3
Расширение режима : CM (complete main)
Параметр Endianness формата : Big
Идентификатор кодека : A_AC3
Продолжительность : 1 ч. 39 м.
Вид битрейта : Постоянный
Битрейт : 192 Кбит/сек
Каналы : 2 канала
Расположение каналов : Front: L R
Частота : 48,0 КГц
Битовая глубина : 16 бит
Метод сжатия : С потерями
Размер потока : 137 Мбайт (9%)
Заголовок : VO Zames
Язык : Russian
Default : Да
Forced : Нет

Меню
00:00:00.000 : zh:00:00:00.000
00:07:54.667 : zh:00:07:54.667
00:14:51.083 : zh:00:14:51.083
00:25:19.083 : zh:00:25:19.083
00:33:39.458 : zh:00:33:39.458
00:41:16.750 : zh:00:41:16.750
00:50:02.208 : zh:00:50:02.208
00:58:43.417 : zh:00:58:43.417
01:07:20.000 : zh:01:07:20.000
01:14:41.833 : zh:01:14:41.833
01:23:55.917 : zh:01:23:55.917
01:33:36.708 : zh:01:33:36.708
Скриншоты:

загрузка...
Правила, инструкции, FAQ!!!
Торрент  Добавлен [09 янв 2015, 23:42] Скачать торрент
Скачать торрент
[ Размер 15.48 КБ / Просмотров 2 ]

Статус
Проверен 
 
Размер  1.46 ГБ
Приватный: Нет (DHT включён)
.torrent скачан  0
Как залить торрент? | Как скачать Torrent? | Как смотреть и слушать онлайн?  


     Отправить личное сообщение
   
Страница 1 из 1
Показать сообщения за:  Поле сортировки  
Начать новую тему Ответить на тему

   Похожие торренты   Автор   Ответы   Просмотры   Последнее сообщение 
В этой теме нет новых непрочитанных сообщений. Скачать торрент Проверен Последний из лучших / Yat ku chan dik mou lam / Kung Fu Jungle (2014) BDRip [720p] [VO]

в форуме 720p | 1080p, Размер: 4.72 ГБ, Здоровье: 100%

Гость

0
69|29

29
0

09 янв 2015, 23:38

Гость Перейти к последнему сообщению

В этой теме нет новых непрочитанных сообщений. Скачать торрент Проверен Cryer J.D., Kung-Sik Chan - Time Series Analysis With Applications in R [2008, PDF, ENG]

в форуме Веб-дизайн и программирование, Размер: 5.44 МБ, Здоровье: 100%

Anonymous

0
2|1

0
0

22 окт 2016, 13:39

Anonymous Перейти к последнему сообщению

В этой теме нет новых непрочитанных сообщений. Скачать торрент Проверен Последний сеанс / The Last Showing (2014) HDRip | L1

в форуме Триллеры, Размер: 1.3 ГБ, Здоровье: 0%

Anonymous

0
1|224

68
0

27 сен 2014, 22:19

Anonymous Перейти к последнему сообщению

В этой теме нет новых непрочитанных сообщений. Скачать торрент Проверен Последний бриллиант / Le dernier diamant (2014) HDRip

в форуме Драмы, Мелодрамы, Размер: 1.46 ГБ, Здоровье: 100%

Гость

0
416|4

39
0

19 дек 2014, 22:36

Гость Перейти к последнему сообщению

В этой теме нет новых непрочитанных сообщений. Скачать торрент Проверен Кулинария. 100 лучших рецептов - (100 лучших рецептов украшения закусок; 100 лучших рецептов блюд на скорую руку; 100 лучших рецептов пасхального стола; 100 лучших рецептов блюд из грибов [2015-2016, PDF, RUS] Обновлено 09.07.2016г.

в форуме Кулинария, Размер: 36.93 МБ, Здоровье: 100%

Anonymous

0
13|4

23
1

20 окт 2016, 00:20

Anonymous Перейти к последнему сообщению



Сейчас этот форум просматривают: нет зарегистрированных пользователей и гости: 1


Вы не можете начинать темы
Вы не можете отвечать на сообщения
Вы не можете редактировать свои сообщения
Вы не можете удалять свои сообщения
Вы не можете добавлять вложения

Перейти:  

!ВНИМАНИЕ!
 Ресурс не предоставляет электронные версии произведений, а занимается лишь коллекционированием и каталогизацией ссылок, присылаемых и публикуемых на форуме нашими читателями. Если вы являетесь правообладателем какого-либо представленного материала и не желаете чтобы ссылка на него находилась в нашем каталоге, свяжитесь с нами и мы незамедлительно удалим её. Файлы для обмена на трекере предоставлены пользователями сайта, и администрация не несёт ответственности за их содержание. Просьба не заливать файлы, защищенные авторскими правами, а также файлы нелегального содержания!