На всех торрентах на трекере установлена скидка на скачивание в размере 100 процентов(а).
 Возможность скачивания торрента НЕ зависит от ограничений при низком ратио, низком аплоаде, требуемом ратио или требуемом аплоаде.


Начать новую тему Ответить на тему
Статистика раздачи
Размер: 1.46 ГБ | Добавлен: 08 янв 2015, 19:56 | Скачали: 1
Сидеров: 0  [0 байт/сек]    Личеров: 0  [0 байт/сек]
Пред. тема | След. тема 

Автор
Сообщение

СообщениеДобавлено: 08 янв 2015, 19:56 

Год выпуска: 2014
Производство: Индонезия, Япония
Жанр: Боевик, Триллер, Криминал

Описание фильма:
Журналист - неудачник, оставив тщетные попытки добиться правды, решил добиться справедливости и наказать подлецов, скрывшихся от закона. Однако на своем пути мщения ему придется противостоять не только мафии, но и убийце-психопату, который за ним следит.

Режиссер: Кимо Стамбол, Тимо Тьяджанто
Актеры: Ока Антара, Рин Таканаси, Казуки Китамура, Луна Майя, Рэй Сахетапи, Эпи Куснандар, Tara Basro, Мей Курокава



Продолжительность: 02:17:58
Качество видео: HDRip
Перевод: Двуголосый закадровый [DeadSno & den904]

Дата мировой премьеры: 20 января 2014

Видеокодек: Xvid
Битрейт видео: ~1311 kb/s
Размер кадра: 720x304
Аудио: AC3, 2 каналов, 192 Кбит/сек
Формат : AVI
Формат/Информация : Audio Video Interleave
Размер файла : 1,46 Гбайт
Продолжительность : 2 ч. 17 м.
Общий поток : 1513 Кбит/сек
Программа кодирования : VirtualDubMod 1.5.10.3 (build 2550/release)
Библиотека кодирования : VirtualDubMod build 2550/release

Видео
Формат : MPEG-4 Visual
Профиль формата : Advanced Simple@L5
Параметр BVOP формата : 1
Параметр QPel формата : Нет
Параметр GMC формата : Без точки перехода
Параметр матрицы формата : Default (MPEG)
Идентификатор кодека : XVID
Идентификатор кодека/Подсказка : XviD
Продолжительность : 2 ч. 17 м.
Битрейт : 1311 Кбит/сек
Ширина : 720 пикселей
Высота : 304 пикселя
Соотношение сторон : 2,35:1
Частота кадров : 23,976 кадра/сек
Цветовое пространство : YUV
Субдискретизация насыщенности : 4:2:0
Битовая глубина : 8 бит
Тип развёртки : Прогрессивная
Метод сжатия : С потерями
Бит/(Пиксели*Кадры) : 0.250
Размер потока : 1,26 Гбайт (87%)
Библиотека кодирования : XviD 1.2.1 (UTC 2008-12-04)

Аудио
Идентификатор : 1
Формат : AC-3
Формат/Информация : Audio Coding 3
Расширение режима : CM (complete main)
Параметр Endianness формата : Big
Идентификатор кодека : 2000
Продолжительность : 2 ч. 17 м.
Вид битрейта : Постоянный
Битрейт : 192 Кбит/сек
Каналы : 2 канала
Расположение каналов : Front: L R
Частота : 48,0 КГц
Битовая глубина : 16 бит
Метод сжатия : С потерями
Размер потока : 189 Мбайт (13%)
Выравнивание : Разделение по промежуткам
Продолжительность промежутка : 42 мс. (1,00 видеокадр)
Время предзагрузки промежутка : 500 мс.
Скриншоты:

загрузка...
Правила, инструкции, FAQ!!!
Торрент  Добавлен [08 янв 2015, 19:56] Скачать торрент
Скачать торрент
[ Размер 15.34 КБ / Просмотров 11 ]

Статус
Проверен 
 
Размер  1.46 ГБ
Приватный: Нет (DHT включён)
.torrent скачан  1
Как залить торрент? | Как скачать Torrent? | Как смотреть и слушать онлайн?  


     Отправить личное сообщение
   
Страница 1 из 1
Показать сообщения за:  Поле сортировки  
Начать новую тему Ответить на тему

   Похожие торренты   Автор   Ответы   Просмотры   Последнее сообщение 
В этой теме нет новых непрочитанных сообщений. Скачать торрент Проверен Убийцы / Killers (2014) BDRip 1080p

в форуме 720p | 1080p, Размер: 10.89 ГБ, Здоровье: 100%

Гость

0
94|4

77
10

18 апр 2015, 22:57

Гость Перейти к последнему сообщению

В этой теме нет новых непрочитанных сообщений. Скачать торрент Проверен Убийцы на замену / The Replacement Killers (1998) BDRip | D

в форуме Боевики, Размер: 1.46 ГБ, Здоровье: 100%

Гость

0
8|4

78
3

20 янв 2016, 17:40

Гость Перейти к последнему сообщению

В этой теме нет новых непрочитанных сообщений. Скачать торрент Проверен [iPad] Прирожденные убийцы / Natural Born Killers (Оливер Стоун / Oliver Stone) [1994, триллер, драма, мелодрама, криминал, BDRip][Режиссерская версия / Directors Cut]

в форуме Фильмы для iPod, iPhone, iPad, Размер: 3.28 ГБ, Здоровье: 100%

Гость

0
9|3

42
0

12 май 2015, 00:06

Гость Перейти к последнему сообщению

В этой теме нет новых непрочитанных сообщений. Скачать торрент Проверен Наемные убийцы / Assassins (1995) HDRip | D

в форуме Боевики, Размер: 795.33 МБ, Здоровье: 100%

Гость

0
44|1

56
795

18 дек 2014, 23:39

Гость Перейти к последнему сообщению

В этой теме нет новых непрочитанных сообщений. Скачать торрент Проверен Невинные убийцы / Asesinos inocentes (2015) HDRip | L

в форуме Комедии, Размер: 1.39 ГБ, Здоровье: 100%

Гость

0
354|173

123
4

18 фев 2016, 23:05

Гость Перейти к последнему сообщению



Сейчас этот форум просматривают: нет зарегистрированных пользователей и гости: 3


Вы не можете начинать темы
Вы не можете отвечать на сообщения
Вы не можете редактировать свои сообщения
Вы не можете удалять свои сообщения
Вы не можете добавлять вложения

Перейти:  

!ВНИМАНИЕ!
 Ресурс не предоставляет электронные версии произведений, а занимается лишь коллекционированием и каталогизацией ссылок, присылаемых и публикуемых на форуме нашими читателями. Если вы являетесь правообладателем какого-либо представленного материала и не желаете чтобы ссылка на него находилась в нашем каталоге, свяжитесь с нами и мы незамедлительно удалим её. Файлы для обмена на трекере предоставлены пользователями сайта, и администрация не несёт ответственности за их содержание. Просьба не заливать файлы, защищенные авторскими правами, а также файлы нелегального содержания!