На всех торрентах на трекере установлена скидка на скачивание в размере 100 процентов(а).
 Возможность скачивания торрента НЕ зависит от ограничений при низком ратио, низком аплоаде, требуемом ратио или требуемом аплоаде.


Начать новую тему Ответить на тему
Статистика раздачи
Размер: 4.06 ГБ | Добавлен: 07 янв 2015, 19:49 | Скачали: 0
Сидеров: 9  [0 байт/сек]    Личеров: 1  [0 байт/сек]
Пред. тема | След. тема 

Автор
Сообщение

СообщениеДобавлено: 07 янв 2015, 19:49 

Год выпуска: 1986
Производство: США | Warner Bros. Pictures, Cannon Group, Golan-Globus Productions Ltd.
Жанр: Боевик, Триллер

Режиссер: Джордж П. Косматос
Продюсер: Йорам Глобус, Менахем Голан, Джеймс Д. Брубэйкер
Актеры: Сильвестр Сталлоне, Бриджит Нильсен, Рени Сантони, Эндрю Робинсон, Брайан Томпсон, Джон Херцфелд, Ли Гарлингтон, Арт ЛаФлёр, Марко Родригес, Росс Ст. Филлип, Вэл Эйвери

Описание фильма: Он «Кобра» - штурмовой отряд полиции из одного человека, ему достаётся кровавая работёнка, за которую никто не хочет (или не осмеливается) взяться. Он выходит на след убийцы, за которым целая армия преступников-маньяков, стремящихся уничтожить свидетельницу их кровавой вакханалии. Но, к счастью, она попадает под защиту «Кобры».

Перевод: Профессиональный дублированный, профессиональный многоголосый, авторский
Вид субтитров: Вшитые отключаемые
Язык субтитров: Русский, английский

Дата мировой премьеры: 23 мая 1986
Дата выхода DVD релиза: 13 сентября 2001, «Мост-Видео»
Дата выхода Blu-ray релиза: 17 марта 2011, «CP-Digital»

Продолжительность: 01:27:04
Возраст 16+: Зрителям, достигшим 16 лет
Рейтинг MPAA R: Лицам до 17 лет обязательно присутствие взрослого

Качество видео: BDRip [H.264]
Видео: MPEG-4 AVC/H.264, 3500 Kbps, 1024 x 576
Аудио 1: Русский AC3 5.1, 384 Kbps, 48.0 KHz (Полное дублирование) Blu-ray CEE
Аудио 2: Русский AC3 2.0, 192 Kbps, 48.0 KHz (Полное дублирование) Варус-Видео
Аудио 3: Русский AC3 2.0, 192 Kbps, 48.0 KHz (Многоголосый закадровый) НТВ
Аудио 4: Русский AC3 2.0, 192 Kbps, 48.0 KHz (Многоголосый закадровый) Россия
Аудио 5: Русский AC3 2.0, 192 Kbps, 48.0 KHz (Одноголосый закадровый) Ю. Толбин
Аудио 6: Русский AC3 2.0, 224 Kbps, 48.0 KHz (Одноголосый закадровый) Л. Володарский
Аудио 7: Русский AC3 5.1, 448 Kbps, 48.0 KHz (Одноголосый закадровый) В. Горчаков
Аудио 8: Русский AC3 5.1, 448 Kbps, 48.0 KHz (Одноголосый закадровый) А. Гаврилов
Аудио 9: Русский AC3 5.1, 448 Kbps, 48.0 KHz (Одноголосый закадровый) Д. Пучков
Аудио 10: Английский AC3 5.1, 448 Kbps, 48.0 KHz (Оригинал)
Общее
Полное имя : Кобра.mkv
Формат : Matroska
Версия формата : Version 1
Размер файла : 4,06 Гбайт
Продолжительность : 1 ч. 27 м.
Общий поток : 6672 Кбит/сек
Дата кодирования : UTC 2015-01-01 15:59:03
Программа кодирования : mkvmerge v2.4.1 ('Use Me') built on Dec 5 2008 18:30:05
Библиотека кодирования : libebml v0.7.7 + libmatroska v0.8.1

Видео
Идентификатор : 1
Формат : AVC
Формат/Информация : Advanced Video Codec
Профиль формата :
Параметр CABAC формата : Да
Параметр ReFrames формата : 10 кадров
Идентификатор кодека : V_MPEG4/ISO/AVC
Продолжительность : 1 ч. 27 м.
Битрейт : 3500 Кбит/сек
Ширина : 1024 пикселя
Высота : 576 пикселей
Соотношение сторон : 16:9
Режим частоты кадров : Постоянный
Частота кадров : 23,976 кадра/сек
Цветовое пространство : YUV
Субдискретизация насыщенности : 4:2:0
Битовая глубина : 8 бит
Тип развёртки : Прогрессивная
Бит/(Пиксели*Кадры) : 0.247
Размер потока : 2,05 Гбайт (51%)
Заголовок : Кобра (1986)
Библиотека кодирования : x264 core 133 r2334 a3ac64b
Настройки программы : cabac=1 / ref=10 / deblock=1:-3:-3 / analyse=0x3:0x133 / me=umh / subme=10 / psy=1 / psy_rd=1.00:0.10 / mixed_ref=1 / me_range=48 / chroma_me=1 / trellis=2 / 8x8dct=1 / cqm=0 / deadzone=21,11 / fast_pskip=0 / chroma_qp_offset=-3 / threads=6 / lookahead_threads=1 / sliced_threads=0 / nr=0 / decimate=1 / interlaced=0 / bluray_compat=0 / constrained_intra=0 / bframes=5 / b_pyramid=2 / b_adapt=2 / b_bias=0 / direct=3 / weightb=1 / open_gop=0 / weightp=2 / keyint=240 / keyint_min=22 / scenecut=40 / intra_refresh=0 / rc_lookahead=40 / rc=2pass / mbtree=1 / bitrate=3500 / ratetol=1.0 / qcomp=0.60 / qpmin=10 / qpmax=51 / qpstep=4 / cplxblur=20.0 / qblur=0.5 / ip_ratio=1.40 / aq=1:1.00
Язык : English

Аудио #1
Идентификатор : 2
Формат : AC-3
Формат/Информация : Audio Coding 3
Расширение режима : CM (complete main)
Параметр Endianness формата : Big
Идентификатор кодека : A_AC3
Продолжительность : 1 ч. 27 м.
Вид битрейта : Постоянный
Битрейт : 384 Кбит/сек
Каналы : 6 каналов
Расположение каналов : Front: L C R, Side: L R, LFE
Частота : 48,0 КГц
Битовая глубина : 16 бит
Метод сжатия : С потерями
Размер потока : 239 Мбайт (6%)
Заголовок : AC3 (Дублированный) Blu-ray CEE
Язык : Russian

Аудио #2
Идентификатор : 3
Формат : AC-3
Формат/Информация : Audio Coding 3
Расширение режима : CM (complete main)
Параметр Endianness формата : Big
Идентификатор кодека : A_AC3
Продолжительность : 1 ч. 27 м.
Вид битрейта : Постоянный
Битрейт : 192 Кбит/сек
Каналы : 2 канала
Расположение каналов : Front: L R
Частота : 48,0 КГц
Битовая глубина : 16 бит
Метод сжатия : С потерями
Размер потока : 120 Мбайт (3%)
Заголовок : AC3 (Дублированный) Варус-Видео
Язык : Russian

Аудио #3
Идентификатор : 4
Формат : AC-3
Формат/Информация : Audio Coding 3
Расширение режима : CM (complete main)
Параметр Endianness формата : Big
Идентификатор кодека : A_AC3
Продолжительность : 1 ч. 27 м.
Вид битрейта : Постоянный
Битрейт : 192 Кбит/сек
Каналы : 2 канала
Расположение каналов : Front: L R
Частота : 48,0 КГц
Битовая глубина : 16 бит
Метод сжатия : С потерями
Размер потока : 120 Мбайт (3%)
Заголовок : AC3 (Многоголосый) НТВ
Язык : Russian

Аудио #4
Идентификатор : 5
Формат : AC-3
Формат/Информация : Audio Coding 3
Расширение режима : CM (complete main)
Параметр Endianness формата : Big
Идентификатор кодека : A_AC3
Продолжительность : 1 ч. 27 м.
Вид битрейта : Постоянный
Битрейт : 192 Кбит/сек
Каналы : 2 канала
Расположение каналов : Front: L R
Частота : 48,0 КГц
Битовая глубина : 16 бит
Метод сжатия : С потерями
Размер потока : 120 Мбайт (3%)
Заголовок : AC3 (Многоголосый) Россия
Язык : Russian

Аудио #5
Идентификатор : 6
Формат : AC-3
Формат/Информация : Audio Coding 3
Расширение режима : CM (complete main)
Параметр Endianness формата : Big
Идентификатор кодека : A_AC3
Продолжительность : 1 ч. 27 м.
Вид битрейта : Постоянный
Битрейт : 192 Кбит/сек
Каналы : 2 канала
Расположение каналов : Front: L R
Частота : 48,0 КГц
Битовая глубина : 16 бит
Метод сжатия : С потерями
Размер потока : 120 Мбайт (3%)
Заголовок : AC3 (Одноголосый) Ю. Толбин
Язык : Russian

Аудио #6
Идентификатор : 7
Формат : AC-3
Формат/Информация : Audio Coding 3
Расширение режима : CM (complete main)
Параметр Endianness формата : Big
Идентификатор кодека : A_AC3
Продолжительность : 1 ч. 27 м.
Вид битрейта : Постоянный
Битрейт : 224 Кбит/сек
Каналы : 2 канала
Расположение каналов : Front: L R
Частота : 48,0 КГц
Битовая глубина : 16 бит
Метод сжатия : С потерями
Размер потока : 139 Мбайт (3%)
Заголовок : AC3 (Одноголосый) Л. Володарский
Язык : Russian

Аудио #7
Идентификатор : 8
Формат : AC-3
Формат/Информация : Audio Coding 3
Расширение режима : CM (complete main)
Параметр Endianness формата : Big
Идентификатор кодека : A_AC3
Продолжительность : 1 ч. 27 м.
Вид битрейта : Постоянный
Битрейт : 448 Кбит/сек
Каналы : 6 каналов
Расположение каналов : Front: L C R, Side: L R, LFE
Частота : 48,0 КГц
Битовая глубина : 16 бит
Метод сжатия : С потерями
Размер потока : 279 Мбайт (7%)
Заголовок : AC3 (Одноголосый) В. Горчаков
Язык : Russian

Аудио #8
Идентификатор : 9
Формат : AC-3
Формат/Информация : Audio Coding 3
Расширение режима : CM (complete main)
Параметр Endianness формата : Big
Идентификатор кодека : A_AC3
Продолжительность : 1 ч. 27 м.
Вид битрейта : Постоянный
Битрейт : 448 Кбит/сек
Каналы : 6 каналов
Расположение каналов : Front: L C R, Side: L R, LFE
Частота : 48,0 КГц
Битовая глубина : 16 бит
Метод сжатия : С потерями
Размер потока : 279 Мбайт (7%)
Заголовок : AC3 (Одноголосый) А. Гаврилов
Язык : Russian

Аудио #9
Идентификатор : 10
Формат : AC-3
Формат/Информация : Audio Coding 3
Расширение режима : CM (complete main)
Параметр Endianness формата : Big
Идентификатор кодека : A_AC3
Продолжительность : 1 ч. 27 м.
Вид битрейта : Постоянный
Битрейт : 448 Кбит/сек
Каналы : 6 каналов
Расположение каналов : Front: L C R, Side: L R, LFE
Частота : 48,0 КГц
Битовая глубина : 16 бит
Метод сжатия : С потерями
Размер потока : 279 Мбайт (7%)
Заголовок : AC3 (Одноголосый) Д. Пучков
Язык : Russian

Аудио #10
Идентификатор : 11
Формат : AC-3
Формат/Информация : Audio Coding 3
Расширение режима : CM (complete main)
Параметр Endianness формата : Big
Идентификатор кодека : A_AC3
Продолжительность : 1 ч. 27 м.
Вид битрейта : Постоянный
Битрейт : 448 Кбит/сек
Каналы : 6 каналов
Расположение каналов : Front: L C R, Side: L R, LFE
Частота : 48,0 КГц
Битовая глубина : 16 бит
Метод сжатия : С потерями
Размер потока : 279 Мбайт (7%)
Заголовок : AC3 (Оригинал)
Язык : English

Текст #1
Идентификатор : 12
Формат : UTF-8
Идентификатор кодека : S_TEXT/UTF8
Идентификатор кодека/Информация : UTF-8 Plain Text
Заголовок : Русские
Язык : Russian

Текст #2
Идентификатор : 13
Формат : UTF-8
Идентификатор кодека : S_TEXT/UTF8
Идентификатор кодека/Информация : UTF-8 Plain Text
Заголовок : Английские
Язык : English

Скриншоты:

загрузка...
Правила, инструкции, FAQ!!!
Торрент  Добавлен [07 янв 2015, 19:49] Скачать торрент
Скачать торрент
[ Размер 10.91 КБ / Просмотров 8 ]

Статус
Проверен 
 
Размер  4.06 ГБ
Приватный: Нет (DHT включён)
.torrent скачан  0
Как залить торрент? | Как скачать Torrent? | Как смотреть и слушать онлайн?  


     Отправить личное сообщение
   
Страница 1 из 1
Показать сообщения за:  Поле сортировки  
Начать новую тему Ответить на тему

   Похожие торренты   Автор   Ответы   Просмотры   Последнее сообщение 
В этой теме нет новых непрочитанных сообщений. Скачать торрент Проверен Кобра / Cobra (1986) BDRip 1080p | D, P, A

в форуме 720p | 1080p, Размер: 15.49 ГБ, Здоровье: 100%

Anonymous

0
10|3

42
74

08 сен 2014, 19:35

Anonymous Перейти к последнему сообщению

В этой теме нет новых непрочитанных сообщений. Скачать торрент Проверен Кобра / Cobra (1986) HDRip | D

в форуме Боевики, Размер: 1.45 ГБ, Здоровье: 100%

Anonymous

0
17|0

40
164

08 сен 2014, 19:38

Anonymous Перейти к последнему сообщению

В этой теме нет новых непрочитанных сообщений. Скачать торрент Проверен Мастера детектива - Frederick Forsyth / Фредерик Форсайт - The Cobra / Кобра [2011, FB2/RTF/PDF, RUS]

в форуме Детективы и Боевики, Размер: 3.15 МБ, Здоровье: 0%

Anonymous

0
0|0

2
0

08 сен 2016, 21:41

Anonymous Перейти к последнему сообщению

В этой теме нет новых непрочитанных сообщений. Скачать торрент Проверен (Heavy Metal) Cobra Dane - Cobra Dane - 1993, MP3, 320 kbps

в форуме Heavy, Power, Progressive (Metal), Размер: 45.07 МБ, Здоровье: 0%

Anonymous

0
0|0

2
0

09 окт 2016, 13:02

Anonymous Перейти к последнему сообщению

В этой теме нет новых непрочитанных сообщений. Скачать торрент Проверен Бросок кобры / G.I. Joe: The Rise of Cobra (2009) BDRip 720p

в форуме 720p | 1080p, Размер: 4.85 ГБ, Здоровье: 100%

Anonymous

0
13|2

39
435

15 авг 2014, 10:13

Anonymous Перейти к последнему сообщению



Сейчас этот форум просматривают: нет зарегистрированных пользователей и гости: 2


Вы не можете начинать темы
Вы не можете отвечать на сообщения
Вы не можете редактировать свои сообщения
Вы не можете удалять свои сообщения
Вы не можете добавлять вложения

Перейти:  

!ВНИМАНИЕ!
 Ресурс не предоставляет электронные версии произведений, а занимается лишь коллекционированием и каталогизацией ссылок, присылаемых и публикуемых на форуме нашими читателями. Если вы являетесь правообладателем какого-либо представленного материала и не желаете чтобы ссылка на него находилась в нашем каталоге, свяжитесь с нами и мы незамедлительно удалим её. Файлы для обмена на трекере предоставлены пользователями сайта, и администрация не несёт ответственности за их содержание. Просьба не заливать файлы, защищенные авторскими правами, а также файлы нелегального содержания!