На всех торрентах на трекере установлена скидка на скачивание в размере 100 процентов(а).
 Возможность скачивания торрента НЕ зависит от ограничений при низком ратио, низком аплоаде, требуемом ратио или требуемом аплоаде.


Начать новую тему Ответить на тему
Статистика раздачи
Размер: 1.45 ГБ | Добавлен: 06 дек 2014, 11:02 | Скачали: 0
Сидеров: 0  [0 байт/сек]    Личеров: 0  [0 байт/сек]
Пред. тема | След. тема 

Автор
Сообщение

СообщениеДобавлено: 06 дек 2014, 11:02 

Год выпуска: 1996
Жанр: Боевик, Триллер, Драма
Производство: Канада, Великобритания / Algonquin Productions Limited, Cine Grande Corporation, Conquistador Entertainment, Filmline International Inc., Newmarket Capital Group LLC

Описание фильма:
«Снайпер», суперкомандос, работающий на «Агентство» — законспирированную правительственную организацию, управляемую «Координатором». «Снайпер» начинает сомневаться, всматриваться в глаза и лица своих мишеней.
А его «Контролер», второй член снайперской команды, несмотря на молодость, обладает жесткой хваткой и решительностью наемного убийцы. После того, как первая миссия их снайперской команды закончилась провалом и едва их не погубила, они вновь сталкиваются при выполнении задания для «Агентства», давшего им шанс вернуться в систему.
Их мишень: автомобиль, который должен проехать по скоростному шоссе на рассвете. Им противостоят не только сомнения, призраки и беззащитная мишень. «Координатор» отдал приказ «Контролеру» уничтожить «Снайпера», если тот вновь провалит операцию.

Режиссер: Рассел Малкэй
Сценарий: Серджо Алтери
Продюсер: Николас Клермон, Сильвио Мураглиа, Паскаль Борно
Актеры: Дольф Лундгрен, Джина Беллман, Конрад Данн, Кристофер Хейердал, Эмма Стивенс, Александрия Абер, Рейнольд Робинсон, Дэйл Хэйес, Эрин Симс, Джонатан Роберт Рондо

Продолжительность: 01:33:41
Качество видео: DVDRip
Перевод: Авторский, многоголосный закадровый
Язык субтитров: Отсутствуют



Дата мировой премьеры: 4 июля 1996
Дата выхода DVD релиза: 30 апреля 2009, «Русское счастье»

Видеокодек: MPEG-4 AVC/H.264
Битрейт видео: ~1837 Кбит/сек
Размер кадра: 640x480
Аудио 1: Русский, AC3 2.0, 192 Кбит/сек, 48 kHz (Авторский, Пётр Карцев)
Аудио 2: Русский, AC3 1.0, 192 Кбит/сек, 48 kHz (Многоголосный закадровый)
They trained him to kill. Now they want him dead.
Если честно фильм мне очень понравился. С удовольствием могу пересмотреть фильм ещё раз.
Снайпер, суперкомандос в исполнении Дольфа Лундгрена, работающий на «Агентство» — законспирированную правительственную организацию, управляемую Координатором. Снайпер начинает сомневаться, всматриваться в глаза и лица своих мишеней. А его Контролер, второй член снайперской команды, несмотря на молодость, обладает жесткой хваткой и решительностью наемного убийцы. После того, как первая миссия их снайперской команды закончилась провалом и едва их не погубила, они вновь сталкиваются при выполнении задания для «Агентства», давшего им шанс вернуться в систему. Их мишень: автомобиль, который должен проехать по скоростному шоссе на рассвете. Им противостоят не только сомнения, призраки и беззащитная мишень. Координатор отдал приказ Контролеру уничтожить Снайпера, если тот вновь провалит операцию.
Сюжет, мне кажется, просто отличный, постановка на мой взгляд великолепная, актёрская игра очень хорошая, как и режиссура.
После себя фильм оставил лишь положительные впечатления. На протяжении всего фильма в сон не тянуло. После первого просмотра появляется желание снова пересмотреть этот фильм. Рекомендую всем посмотреть этот фильм. А особенно рекомендую фанатам Дольфа Лундгрена.
10 из 10
Общее
Уникальный идентификатор : 244917779945666985125188729911297293147 (0xB84172D97B8874319D7E85D50CD1BB5B)
Полное имя : F:\Downloads\Под прицелом.mkv
Формат : Matroska
Версия формата : Version 4 / Version 2
Размер файла : 1,45 Гбайт
Продолжительность : 1 ч. 33 м.
Общий поток : 2223 Кбит/сек
Дата кодирования : UTC 2014-12-01 11:37:53
Программа кодирования : mkvmerge v7.0.0 ('Where We Going') 32bit built on Jun 9 2014 15:08:34
Библиотека кодирования : libebml v1.3.0 + libmatroska v1.4.1
DURATION : 01:33:41.408000000
NUMBER_OF_FRAMES : 175669
NUMBER_OF_BYTES : 134913792
_STATISTICS_WRITING_APP : mkvmerge v7.0.0 ('Where We Going') 32bit built on Jun 9 2014 15:08:34
_STATISTICS_WRITING_DATE_UTC : 2014-12-01 11:37:53
_STATISTICS_TAGS : BPS DURATION NUMBER_OF_FRAMES NUMBER_OF_BYTES

Видео
Идентификатор : 1
Формат : AVC
Формат/Информация : Advanced Video Codec
Профиль формата :
Параметр CABAC формата : Да
Параметр ReFrames формата : 8 кадров
Идентификатор кодека : V_MPEG4/ISO/AVC
Продолжительность : 1 ч. 33 м.
Битрейт : 1837 Кбит/сек
Ширина : 640 пикселей
Высота : 480 пикселей
Соотношение сторон : 4:3
Режим частоты кадров : Постоянный
Частота кадров : 23,976 кадра/сек
Цветовое пространство : YUV
Субдискретизация насыщенности : 4:2:0
Битовая глубина : 8 бит
Тип развёртки : Прогрессивная
Бит/(Пиксели*Кадры) : 0.249
Размер потока : 1,17 Гбайт (81%)
Заголовок : Silent Trigger
Библиотека кодирования : x264 core 125 r2208 d9d2288
Настройки программы : cabac=1 / ref=8 / deblock=1:-1:-1 / analyse=0x3:0x133 / me=umh / subme=9 / psy=1 / psy_rd=1.00:0.10 / mixed_ref=1 / me_range=32 / chroma_me=1 / trellis=2 / 8x8dct=1 / cqm=0 / deadzone=21,11 / fast_pskip=0 / chroma_qp_offset=-3 / threads=6 / lookahead_threads=1 / sliced_threads=0 / nr=0 / decimate=1 / interlaced=0 / bluray_compat=0 / constrained_intra=0 / bframes=3 / b_pyramid=2 / b_adapt=2 / b_bias=0 / direct=3 / weightb=1 / open_gop=0 / weightp=2 / keyint=250 / keyint_min=25 / scenecut=40 / intra_refresh=0 / rc_lookahead=60 / rc=2pass / mbtree=1 / bitrate=1837 / ratetol=1.0 / qcomp=0.60 / qpmin=0 / qpmax=69 / qpstep=4 / cplxblur=20.0 / qblur=0.5 / ip_ratio=1.40 / aq=1:1.00
Язык : English
Default : Да
Forced : Нет

Аудио #1
Идентификатор : 2
Формат : AC-3
Формат/Информация : Audio Coding 3
Расширение режима : CM (complete main)
Параметр Endianness формата : Big
Идентификатор кодека : A_AC3
Продолжительность : 1 ч. 33 м.
Вид битрейта : Постоянный
Битрейт : 192 Кбит/сек
Каналы : 2 канала
Расположение каналов : Front: L R
Частота : 48,0 КГц
Битовая глубина : 16 бит
Метод сжатия : С потерями
Размер потока : 129 Мбайт (9%)
Заголовок : Авторский, Пётр Карцев
Язык : Russian
Default : Да
Forced : Нет

Аудио #2
Идентификатор : 3
Формат : AC-3
Формат/Информация : Audio Coding 3
Расширение режима : CM (complete main)
Параметр Endianness формата : Big
Идентификатор кодека : A_AC3
Продолжительность : 1 ч. 33 м.
Вид битрейта : Постоянный
Битрейт : 192 Кбит/сек
Каналы : 1 канал
Расположение каналов : Front: C
Частота : 48,0 КГц
Битовая глубина : 16 бит
Метод сжатия : С потерями
Размер потока : 129 Мбайт (9%)
Заголовок : Многоголосый закадровый
Язык : Russian
Default : Нет
Forced : Нет
Скриншоты:

загрузка...
Правила, инструкции, FAQ!!!
Торрент  Добавлен [06 дек 2014, 11:02] Скачать торрент
Скачать торрент
[ Размер 15.34 КБ / Просмотров 8 ]

Статус
Проверен 
 
Размер  1.45 ГБ
Приватный: Нет (DHT включён)
.torrent скачан  0
Как залить торрент? | Как скачать Torrent? | Как смотреть и слушать онлайн?  


     Отправить личное сообщение
   
Страница 1 из 1
Показать сообщения за:  Поле сортировки  
Начать новую тему Ответить на тему

   Похожие торренты   Автор   Ответы   Просмотры   Последнее сообщение 
В этой теме нет новых непрочитанных сообщений. Скачать торрент Проверен (Rock, Hard Rock) [CD] Trigger - Trigger - 1978 (2009), FLAC (tracks+.cue), lossless

в форуме Classic Rock & Hard Rock, Размер: 251.55 МБ, Здоровье: 0%

Anonymous

0
0|0

2
1

03 сен 2016, 16:54

Anonymous Перейти к последнему сообщению

В этой теме нет новых непрочитанных сообщений. Скачать торрент Проверен (Power/Speed Metal) Gamma Ray - Future Madhouse & Silent Miracles (1993/1996) - 1996, APE (image+.cue), lossless

в форуме Heavy, Power, Progressive (Metal), Размер: 321.08 МБ, Здоровье: 0%

Anonymous

0
0|0

3
0

11 окт 2016, 17:44

Anonymous Перейти к последнему сообщению

В этой теме нет новых непрочитанных сообщений. Скачать торрент Проверен (Blues Rock / Americana Rock) Trigger Hippy - Trigger Hippy - 2014, MP3, 320 kbps

в форуме Classic Rock & Hard Rock, Размер: 121.18 МБ, Здоровье: 0%

Anonymous

0
0|0

0
0

13 ноя 2016, 20:58

Anonymous Перейти к последнему сообщению

В этой теме нет новых непрочитанных сообщений. Скачать торрент Проверен (Progressive Metal) Silent Lucidity - Positive As Sound - 1996, FLAC (image+.cue), lossless

в форуме Heavy, Power, Progressive (Metal), Размер: 301.14 МБ, Здоровье: 0%

Anonymous

0
0|0

0
0

10 окт 2016, 21:48

Anonymous Перейти к последнему сообщению

В этой теме нет новых непрочитанных сообщений. Скачать торрент Проверен (Avant-Garde, Ambient, Ethereal) C.W. Vrtacek - Silent Heaven - 1996, FLAC (tracks+.cue), lossless

в форуме Progressive & Art-Rock, Размер: 399.95 МБ, Здоровье: 100%

Anonymous

0
9|0

6
0

29 авг 2016, 22:48

Anonymous Перейти к последнему сообщению



Сейчас этот форум просматривают: нет зарегистрированных пользователей и гости: 1


Вы не можете начинать темы
Вы не можете отвечать на сообщения
Вы не можете редактировать свои сообщения
Вы не можете удалять свои сообщения
Вы не можете добавлять вложения

Перейти:  

!ВНИМАНИЕ!
 Ресурс не предоставляет электронные версии произведений, а занимается лишь коллекционированием и каталогизацией ссылок, присылаемых и публикуемых на форуме нашими читателями. Если вы являетесь правообладателем какого-либо представленного материала и не желаете чтобы ссылка на него находилась в нашем каталоге, свяжитесь с нами и мы незамедлительно удалим её. Файлы для обмена на трекере предоставлены пользователями сайта, и администрация не несёт ответственности за их содержание. Просьба не заливать файлы, защищенные авторскими правами, а также файлы нелегального содержания!