На всех торрентах на трекере установлена скидка на скачивание в размере 100 процентов(а).
 Возможность скачивания торрента НЕ зависит от ограничений при низком ратио, низком аплоаде, требуемом ратио или требуемом аплоаде.


Начать новую тему Ответить на тему
Статистика раздачи
Размер: 5.98 ГБ | Добавлен: 30 ноя 2014, 10:58 | Скачали: 0
Сидеров: 9  [0 байт/сек]    Личеров: 0  [0 байт/сек]
Пред. тема | След. тема 

Автор
Сообщение

СообщениеДобавлено: 30 ноя 2014, 10:58 

Название: История рыцаря
Оригинальное название: A Knight's Tale
Год выхода: 2001
Жанр: Приключения, мелодрама, комедия
Режиссер: Брайан Хелгеленд
В ролях: Хит Леджер, Руфус Сьюэлл, Шаннин Соссамон, Пол Беттани, Лора Фрейзер, Марк Эдди, Алан Тьюдик, Беренис Бежо, Скотт Хэнди, Джеймс Пьюрфой, Ли Конвелл, Кристофер Кейзнов, Стив О’Доннелл, Джонатан Слингер, Ник Бримбл, Карел Добры, Филип Ленковски, Роджер Эштон-Гриффитс, Петр Мейссел, Мэттью Миллс

О фильме: Он не подчинялся ни одному правилу, ибо был создан для того, чтобы их нарушать. После гибели своего господина слуга Уильям решается на отчаянную авантюру. Юноше удается изменить свою родословную и, происвоив себе доспехи и оружие ушедшего хозяина, предстать перед публикой молодым и родовитым рыцарем Ульрихом фон Лихтенштейном. Теперь в новом качестве ему предстоит доказывать свое благородное происхождение на рыцарских турнирах копьем и мечом. Отвага и решимость сэра Уильяма закалилась в бесчисленных схватках. Но в качестве последнего испытания пылкому сердцу великого самозванца послана страстная любовь, которой под силу выбить из седла самого неустрашимого воина...



Страна: США
Студия: Columbia Pictures Corporation
Продолжительность: 02:12:08
Перевод: Дублированный, профессиональный многоголосый, авторский одноголосый, украинский


Кодек: MPEG-4 AVC
Качество: BDRip-AVC
Видео: 3500 Кбит/с, 1024х436, 23.976 кадр/с
Звук:
Аудио #1: Русский (AC3, 2 ch, 224 Кбит/с) / Дублированный
Аудио #2: Русский (AC3, 6 ch, 448 Кбит/с) / Профессиональный многоголосый (Blu-ray CEE)
Аудио #3: Русский (AC3, 2 ch, 192 Кбит/с) / Профессиональный многоголосый (СТС / 1 канал)
Аудио #4: Русский (AC3, 2 ch, 192 Кбит/с) / Авторский одноголосый (С. Визгунов)
Аудио #5: Русский (AC3, 6 ch, 448 Кбит/с) / Авторский одноголосый (Ю. Живов)
Аудио #6: Русский (AC3, 6 ch, 448 Кбит/с) / Авторский одноголосый (В. Яковлев (Самарский))
Аудио #7: Украинский (AC3, 6 ch, 384 Кбит/с) / Профессиональный многоголосый (K1)
Аудио #8: Украинский (AC3, 2 ch, 192 Кбит/с) / Профессиональный многоголосый (Новый канал)
Аудио #9: Английский (AC3, 6 ch, 448 Кбит/с)
Субтитры: Русские, английские

Семпл

Общее
Уникальный идентификатор                 : 212552025098120385494163746983931992106 (0x9FE807EECEB1BB95A1ED0DA903E6D82A)
Полное имя                               : H:1FilmsHРелизыIstorija.rycarja.2001.x264.BDRip.AVC.MediaClub.mkv
Формат                                   : Matroska
Версия формата                           : Version 4 / Version 2
Размер файла                             : 5,98 Гбайт
Продолжительность                        : 2 ч. 12 м.
Общий поток                              : 6480 Кбит/сек
Название фильма                          : -= MediaClub =- rip by Lefevr
Дата кодирования                         : UTC 2014-11-12 17:01:00
Программа кодирования                    : mkvmerge v6.1.0 ('Old Devil') built on Mar  4 2013 09:10:42
Библиотека кодирования                   : libebml v1.3.0 + libmatroska v1.4.0

Видео
Идентификатор                            : 1
Формат                                   : AVC
Формат/Информация                        : Advanced Video Codec
Профиль формата                          : High@L4.1
Параметр CABAC формата                   : Да
Параметр ReFrames формата                : 9 кадров
Идентификатор кодека                     : V_MPEG4/ISO/AVC
Продолжительность                        : 2 ч. 12 м.
Битрейт                                  : 3500 Кбит/сек
Ширина                                   : 1024 пикселя
Высота                                   : 436 пикселей
Соотношение сторон                       : 2,35:1
Режим частоты кадров                     : Постоянный
Частота кадров                           : 23,976 кадра/сек
Цветовое пространство                    : YUV
Субдискретизация насыщенности            : 4:2:0
Битовая глубина                          : 8 бит
Тип развёртки                            : Прогрессивная
Бит/(Пиксели*Кадры)                      : 0.327
Размер потока                            : 3,12 Гбайт (52%)
Заголовок                                : Istorija.rycarja.2001.x264.BDRip.AVC.MediaClub
Библиотека кодирования                   : x264 core 130 r2273 b3065e6
Настройки программы                      : cabac=1 / ref=9 / deblock=1:-3:-3 / analyse=0x3:0x133 / me=umh / subme=11 / psy=1 / psy_rd=1.00:0.25 / mixed_ref=1 / me_range=32 / chroma_me=1 / trellis=2 / 8x8dct=1 / cqm=0 / deadzone=21,11 / fast_pskip=0 / chroma_qp_offset=-4 / threads=6 / lookahead_threads=1 / sliced_threads=0 / nr=0 / decimate=0 / interlaced=0 / bluray_compat=0 / constrained_intra=0 / bframes=8 / b_pyramid=2 / b_adapt=2 / b_bias=0 / direct=3 / weightb=1 / open_gop=0 / weightp=2 / keyint=240 / keyint_min=23 / scenecut=40 / intra_refresh=0 / rc=2pass / mbtree=0 / bitrate=3500 / ratetol=1.0 / qcomp=0.60 / qpmin=0 / qpmax=69 / qpstep=4 / cplxblur=20.0 / qblur=0.5 / ip_ratio=1.40 / pb_ratio=1.30 / aq=1:1.00
Язык                                     : English
Default                                  : Да
Forced                                   : Да

Аудио #1
Идентификатор                            : 2
Формат                                   : AC-3
Формат/Информация                        : Audio Coding 3
Расширение режима                        : CM (complete main)
Параметр Endianness формата              : Big
Идентификатор кодека                     : A_AC3
Продолжительность                        : 2 ч. 12 м.
Вид битрейта                             : Постоянный
Битрейт                                  : 224 Кбит/сек
Каналы                                   : 2 канала
Расположение каналов                     : Front: L R
Частота                                  : 48,0 КГц
Битовая глубина                          : 16 бит
Метод сжатия                             : С потерями
Размер потока                            : 212 Мбайт (3%)
Заголовок                                : TRACK_01_DUB_RUS
Язык                                     : Russian
Default                                  : Да
Forced                                   : Да

Аудио #2
Идентификатор                            : 3
Формат                                   : AC-3
Формат/Информация                        : Audio Coding 3
Расширение режима                        : CM (complete main)
Параметр Endianness формата              : Big
Идентификатор кодека                     : A_AC3
Продолжительность                        : 2 ч. 12 м.
Вид битрейта                             : Постоянный
Битрейт                                  : 448 Кбит/сек
Каналы                                   : 6 каналов
Расположение каналов                     : Front: L C R, Side: L R, LFE
Частота                                  : 48,0 КГц
Битовая глубина                          : 16 бит
Метод сжатия                             : С потерями
Размер потока                            : 423 Мбайт (7%)
Заголовок                                : TRACK_02_MVO_RUS_Blu-ray CEE
Язык                                     : Russian
Default                                  : Нет
Forced                                   : Нет

Аудио #3
Идентификатор                            : 4
Формат                                   : AC-3
Формат/Информация                        : Audio Coding 3
Расширение режима                        : CM (complete main)
Параметр Endianness формата              : Big
Идентификатор кодека                     : A_AC3
Продолжительность                        : 2 ч. 12 м.
Вид битрейта                             : Постоянный
Битрейт                                  : 192 Кбит/сек
Каналы                                   : 2 канала
Расположение каналов                     : Front: L R
Частота                                  : 48,0 КГц
Битовая глубина                          : 16 бит
Метод сжатия                             : С потерями
Размер потока                            : 181 Мбайт (3%)
Заголовок                                : TRACK_03_MVO_CTC
Язык                                     : Russian
Default                                  : Нет
Forced                                   : Нет

Аудио #4
Идентификатор                            : 5
Формат                                   : AC-3
Формат/Информация                        : Audio Coding 3
Расширение режима                        : CM (complete main)
Параметр Endianness формата              : Big
Идентификатор кодека                     : A_AC3
Продолжительность                        : 2 ч. 12 м.
Вид битрейта                             : Постоянный
Битрейт                                  : 192 Кбит/сек
Каналы                                   : 2 канала
Расположение каналов                     : Front: L R
Частота                                  : 48,0 КГц
Битовая глубина                          : 16 бит
Метод сжатия                             : С потерями
Размер потока                            : 181 Мбайт (3%)
Заголовок                                : TRACK_04_AVO_RUS_Vizgunov
Язык                                     : Russian
Default                                  : Нет
Forced                                   : Нет

Аудио #5
Идентификатор                            : 6
Формат                                   : AC-3
Формат/Информация                        : Audio Coding 3
Расширение режима                        : CM (complete main)
Параметр Endianness формата              : Big
Идентификатор кодека                     : A_AC3
Продолжительность                        : 2 ч. 12 м.
Вид битрейта                             : Постоянный
Битрейт                                  : 448 Кбит/сек
Каналы                                   : 6 каналов
Расположение каналов                     : Front: L C R, Side: L R, LFE
Частота                                  : 48,0 КГц
Битовая глубина                          : 16 бит
Метод сжатия                             : С потерями
Размер потока                            : 423 Мбайт (7%)
Заголовок                                : TRACK_05_AVO_RUS_Zhivov
Язык                                     : Russian
Default                                  : Нет
Forced                                   : Нет

Аудио #6
Идентификатор                            : 7
Формат                                   : AC-3
Формат/Информация                        : Audio Coding 3
Расширение режима                        : CM (complete main)
Параметр Endianness формата              : Big
Идентификатор кодека                     : A_AC3
Продолжительность                        : 2 ч. 12 м.
Вид битрейта                             : Постоянный
Битрейт                                  : 448 Кбит/сек
Каналы                                   : 6 каналов
Расположение каналов                     : Front: L C R, Side: L R, LFE
Частота                                  : 48,0 КГц
Битовая глубина                          : 16 бит
Метод сжатия                             : С потерями
Размер потока                            : 423 Мбайт (7%)
Заголовок                                : TRACK_06_AVO_RUS_Jakovlev
Язык                                     : Russian
Default                                  : Нет
Forced                                   : Нет

Аудио #7
Идентификатор                            : 8
Формат                                   : AC-3
Формат/Информация                        : Audio Coding 3
Расширение режима                        : CM (complete main)
Параметр Endianness формата              : Big
Идентификатор кодека                     : A_AC3
Продолжительность                        : 2 ч. 12 м.
Вид битрейта                             : Постоянный
Битрейт                                  : 384 Кбит/сек
Каналы                                   : 6 каналов
Расположение каналов                     : Front: L C R, Side: L R, LFE
Частота                                  : 48,0 КГц
Битовая глубина                          : 16 бит
Метод сжатия                             : С потерями
Размер потока                            : 363 Мбайт (6%)
Заголовок                                : TRACK_07_MVO_UKR_K1
Язык                                     : Ukrainian
Default                                  : Нет
Forced                                   : Нет

Аудио #8
Идентификатор                            : 9
Формат                                   : AC-3
Формат/Информация                        : Audio Coding 3
Расширение режима                        : CM (complete main)
Параметр Endianness формата              : Big
Идентификатор кодека                     : A_AC3
Продолжительность                        : 2 ч. 12 м.
Вид битрейта                             : Постоянный
Битрейт                                  : 192 Кбит/сек
Каналы                                   : 2 канала
Расположение каналов                     : Front: L R
Частота                                  : 48,0 КГц
Битовая глубина                          : 16 бит
Метод сжатия                             : С потерями
Размер потока                            : 181 Мбайт (3%)
Заголовок                                : TRACK_08_MVO_UKR_Novyj_Kanal
Язык                                     : Ukrainian
Default                                  : Нет
Forced                                   : Нет

Аудио #9
Идентификатор                            : 10
Формат                                   : AC-3
Формат/Информация                        : Audio Coding 3
Расширение режима                        : CM (complete main)
Параметр Endianness формата              : Big
Идентификатор кодека                     : A_AC3
Продолжительность                        : 2 ч. 12 м.
Вид битрейта                             : Постоянный
Битрейт                                  : 448 Кбит/сек
Каналы                                   : 6 каналов
Расположение каналов                     : Front: L C R, Side: L R, LFE
Частота                                  : 48,0 КГц
Битовая глубина                          : 16 бит
Метод сжатия                             : С потерями
Размер потока                            : 423 Мбайт (7%)
Заголовок                                : TRACK_09_ORIGINAL_ENG
Язык                                     : English
Default                                  : Нет
Forced                                   : Нет

Текст #1
Идентификатор                            : 11
Формат                                   : UTF-8
Идентификатор кодека                     : S_TEXT/UTF8
Идентификатор кодека/Информация          : UTF-8 Plain Text
Заголовок                                : TEXT_01_SUB_RUS.srt
Язык                                     : Russian
Default                                  : Нет
Forced                                   : Нет

Текст #2
Идентификатор                            : 12
Формат                                   : UTF-8
Идентификатор кодека                     : S_TEXT/UTF8
Идентификатор кодека/Информация          : UTF-8 Plain Text
Заголовок                                : TEXT_02_SUB_ENG.srt
Язык                                     : English
Default                                  : Нет
Forced                                   : Нет

Меню
00:00:00.000                             : en:Start
00:06:18.586                             : en:Sir Ector Rides Again
00:14:25.698                             : en:"Low Rider"
00:23:59.688                             : en:Chaucer the Trudger
00:32:12.138                             : en:Foxy Lady
00:38:43.612                             : en:Master of 1000 Lances
00:44:11.523                             : en:A Gambling Problem
00:56:44.317                             : en:Sword on Foot
01:04:42.753                             : en:"Takin' Care of Business"
01:09:52.813                             : en:Kate the Smithee
01:20:29.407                             : en:Count Adhemar
01:29:37.830                             : en:Hark! the Herald Sings
01:40:02.413                             : en:Ulric vs. Colville
01:44:02.236                             : en:Adhemar vs. Ulric
01:49:39.573                             : en:Dance Lesson
02:04:21.704                             : en:"Golden Years"

...last pass...

x264.exe: --pass 2 --bitrate 3500 --preset slower --profile high --level 4.1 --ref 9 --deblock -3:-3 --merange 32 --bframes 8 --no-fast-pskip --no-dct-decimate --psy-rd 1.00:0.25 --subme 11 --no-mbtree --keyint 240 --sar 1:1 --stats "E:1Films EРелизыA Knight's Tale11111.log" --output "E:1Films EРелизыA Knight's Tale11111.mkv" "F:Temp\0006.avs"

avs [info]: 1024x436p 1:1 @ 2500000/104271 fps (cfr)
x264 [info]: using SAR=1/1
x264 [info]: using cpu capabilities: MMX2 SSE2Fast SSSE3 SSE4.2 AVX
x264 [info]: profile High, level 4.1
                                                                              
x264 [info]: frame I:1784  Avg QP:16.54  size: 98617
x264 [info]: frame P:48122 Avg QP:19.22  size: 36096
x264 [info]: frame B:140198 Avg QP:20.83  size: 11095
x264 [info]: consecutive B-frames:  4.0%  3.6% 11.8% 29.1% 21.6% 26.4%  2.2%  0.8%  0.4%
x264 [info]: mb I  I16..4: 14.8% 52.2% 33.0%
x264 [info]: mb P  I16..4:  0.8% 14.8%  4.9%  P16..4: 20.9% 29.1% 18.8%  6.8%  1.1%    skip: 2.8%
x264 [info]: mb B  I16..4:  0.0%  1.4%  0.7%  B16..8: 29.3% 29.2%  6.7%  direct: 7.5%  skip:25.2%  L0:32.6% L1:39.1% BI:28.3%
x264 [info]: 8x8 transform intra:68.4% inter:39.7%
x264 [info]: direct mvs  spatial:98.9% temporal:1.1%
x264 [info]: coded y,uvDC,uvAC intra: 92.7% 93.3% 77.5% inter: 34.5% 24.1% 12.2%
x264 [info]: i16 v,h,dc,p: 11%  4% 30% 55%
x264 [info]: i8 v,h,dc,ddl,ddr,vr,hd,vl,hu: 14%  9% 10%  8% 11% 12% 10% 12% 12%
x264 [info]: i4 v,h,dc,ddl,ddr,vr,hd,vl,hu: 34%  6%  5%  7% 10% 11%  9%  9%  9%
x264 [info]: i8c dc,h,v,p: 41% 23% 19% 17%
x264 [info]: Weighted P-Frames: Y:7.3% UV:3.0%
x264 [info]: ref P L0: 47.1% 15.8% 18.3%  4.6%  4.7%  2.7%  3.1%  1.5%  1.8%  0.3%  0.0%
x264 [info]: ref B L0: 86.1%  7.8%  2.3%  1.4%  0.9%  0.8%  0.5%  0.2%
x264 [info]: ref B L1: 97.0%  3.0%
x264 [info]: kb/s:3499.59

загрузка...
Правила, инструкции, FAQ!!!
Торрент  Добавлен [30 ноя 2014, 10:58] Скачать торрент
Скачать торрент
[ Размер 15.63 КБ / Просмотров 7 ]

Статус
Проверен 
 
Размер  5.98 ГБ
Приватный: Нет (DHT включён)
.torrent скачан  0
Как залить торрент? | Как скачать Torrent? | Как смотреть и слушать онлайн?  


     Отправить личное сообщение
   
Страница 1 из 1
Показать сообщения за:  Поле сортировки  
Начать новую тему Ответить на тему

   Похожие торренты   Автор   Ответы   Просмотры   Последнее сообщение 
В этой теме нет новых непрочитанных сообщений. Скачать торрент История рыцаря / A Knight's Tale (Брайан Хелгеленд / Brian Helgeland) [2001, США, боевик, мелодрама, BDRip] DUB

в форуме Боевики, Размер: 2.54 ГБ, Здоровье: 100%

Anonymous

0
5|2

42
0

22 апр 2014, 11:40

Anonymous Перейти к последнему сообщению

В этой теме нет новых непрочитанных сообщений. Скачать торрент Проверен История рыцаря / A Knight's Tale (2001) HDRip

в форуме Боевики, Размер: 1.46 ГБ, Здоровье: 100%

Anonymous

0
58|2

31
4

30 ноя 2014, 10:55

Anonymous Перейти к последнему сообщению

В этой теме нет новых непрочитанных сообщений. Скачать торрент Проверен Любовный роман - Nicole Burnham / Николь Бернем - The Knight's Kiss / Поцелуй рыцаря [2005, RTF, FB2, RB, RUS]

в форуме Женский роман, Размер: 5.23 МБ, Здоровье: 100%

Anonymous

0
1|0

3
0

28 авг 2016, 20:36

Anonymous Перейти к последнему сообщению

В этой теме нет новых непрочитанных сообщений. Скачать торрент Черный рыцарь / Black Knight (2001) BDRip

в форуме Фантастика, Фэнтези, Размер: 1.88 ГБ, Здоровье: 100%

Anonymous

0
5|1

59
28

03 янв 2014, 12:21

Anonymous Перейти к последнему сообщению

В этой теме нет новых непрочитанных сообщений. Скачать торрент Черный рыцарь / Black Knight (2001) BDRip 1080p

в форуме 720p | 1080p, Размер: 5.75 ГБ, Здоровье: 0%

Anonymous

0
0|0

48
0

03 янв 2014, 12:27

Anonymous Перейти к последнему сообщению



Сейчас этот форум просматривают: нет зарегистрированных пользователей и гости: 1


Вы не можете начинать темы
Вы не можете отвечать на сообщения
Вы не можете редактировать свои сообщения
Вы не можете удалять свои сообщения
Вы не можете добавлять вложения

Перейти:  

!ВНИМАНИЕ!
 Ресурс не предоставляет электронные версии произведений, а занимается лишь коллекционированием и каталогизацией ссылок, присылаемых и публикуемых на форуме нашими читателями. Если вы являетесь правообладателем какого-либо представленного материала и не желаете чтобы ссылка на него находилась в нашем каталоге, свяжитесь с нами и мы незамедлительно удалим её. Файлы для обмена на трекере предоставлены пользователями сайта, и администрация не несёт ответственности за их содержание. Просьба не заливать файлы, защищенные авторскими правами, а также файлы нелегального содержания!