На всех торрентах на трекере установлена скидка на скачивание в размере 100 процентов(а).
 Возможность скачивания торрента НЕ зависит от ограничений при низком ратио, низком аплоаде, требуемом ратио или требуемом аплоаде.


Начать новую тему Ответить на тему
Статистика раздачи
Размер: 1.46 ГБ | Добавлен: 30 ноя 2014, 10:55 | Скачали: 4
Сидеров: 58  [0 байт/сек]    Личеров: 2  [0 байт/сек]
Пред. тема | След. тема 

Автор
Сообщение

СообщениеДобавлено: 30 ноя 2014, 10:55 

Название: История рыцаря
Оригинальное название: A Knight's Tale
Год выхода: 2001
Жанр: боевик, мелодрама, комедия
Режиссер: Брайан Хелгелэнд / Brian Helgeland
В ролях: Хит Леджер /Heath Ledger/, Руфус Сьюэлл /Rufus Sewell/, Шэннин Соссамон /Shannyn Sossamon/, Пол Беттани /Paul Bettany/, Лаура Фрэйзер /Laura Fraser/, Марк Эдди /Mark Addy/

О фильме:
Он не подчинялся ни одному правилу, ибо был создан для того, чтобы их нарушать. После гибели своего господина слуга Уильям решается на отчаянную авантюру. Юноше удается изменить свою родословную и, присвоив себе доспехи и оружие ушедшего хозяина, предстать перед публикой молодым и родовитым рыцарем Ульрихом фон Лихтенштейном.

Теперь в новом качестве ему предстоит доказывать свое благородное происхождение на рыцарских турнирах копьем и мечом. Отвага и решимость сэра Уильяма закалилась в бесчисленных схватках. Но в качестве последнего испытания пылкому сердцу великого самозванца послана страстная любовь, которой под силу выбить из седла самого неустрашимого воина…

Страна: США
Студия: Escape Artists, Columbia Pictures
Продолжительность: 02:12:09
Перевод: Профессиональный (полное дублирование)


Кодек: XviD / AC3
Качество: HDRip
Видео: XviD, 720x304 (2.35:1), 23.976 fps, 1 193 Kbps (0.227 bit/pixel)
Звук: AC-3, 48.0 KHz, 2 ch, 384 Kbps, CBR

General
Complete name : E:A.Knight's.Tale_HDRip_1400_[Rutor.org] .avi
Format : AVI
Format/Info : Audio Video Interleave
File size : 1.46 GiB
Duration : 2h 12mn
Overall bit rate : 1 587 Kbps
Writing application : VirtualDubMod 1.5.10.2 (build 2540/release)
Writing library : VirtualDubMod build 2540/release

Video
ID : 0
Format : MPEG-4 Visual
Format profile : Advanced Simple@L5
Format settings, BVOP : 1
Format settings, QPel : No
Format settings, GMC : No warppoints
Format settings, Matrix : Default (MPEG)
Codec ID : XVID
Codec ID/Hint : XviD
Duration : 2h 12mn
Bit rate : 1 193 Kbps
Width : 720 pixels
Height : 304 pixels
Display aspect ratio : 2.35:1
Frame rate : 23.976 fps
Color space : YUV
Chroma subsampling : 4:2:0
Bit depth : 8 bits
Scan type : Progressive
Compression mode : Lossy
Bits/(Pixel*Frame) : 0.227
Stream size : 1.10 GiB (75%)
Writing library : XviD 1.2.0.dev47 (UTC 2006-11-01)

Audio
ID : 1
Format : AC-3
Format/Info : Audio Coding 3
Mode extension : CM (complete main)
Codec ID : 2000
Duration : 2h 12mn
Bit rate mode : Constant
Bit rate : 384 Kbps
Channel(s) : 2 channels
Channel positions : Front: L R
Sampling rate : 48.0 KHz
Bit depth : 16 bits
Compression mode : Lossy
Stream size : 363 MiB (24%)
Alignment : Split accross interleaves
Interleave, duration : 42 ms (1.00 video frame)
Interleave, preload duration : 500 ms

загрузка...
Правила, инструкции, FAQ!!!
Торрент  Добавлен [30 ноя 2014, 10:55] Скачать торрент
Скачать торрент
[ Размер 15.16 КБ / Просмотров 10 ]

Статус
Проверен 
 
Размер  1.46 ГБ
Приватный: Нет (DHT включён)
.torrent скачан  4
Как залить торрент? | Как скачать Torrent? | Как смотреть и слушать онлайн?  


     Отправить личное сообщение
   
Страница 1 из 1
Показать сообщения за:  Поле сортировки  
Начать новую тему Ответить на тему

   Похожие торренты   Автор   Ответы   Просмотры   Последнее сообщение 
В этой теме нет новых непрочитанных сообщений. Скачать торрент Проверен История рыцаря / A Knight's Tale (2001) BDRip-AVC | D, P, A

в форуме Боевики, Размер: 5.98 ГБ, Здоровье: 100%

Гость

0
9|0

34
0

30 ноя 2014, 10:58

Гость Перейти к последнему сообщению

В этой теме нет новых непрочитанных сообщений. Скачать торрент История рыцаря / A Knight's Tale (Брайан Хелгеленд / Brian Helgeland) [2001, США, боевик, мелодрама, BDRip] DUB

в форуме Боевики, Размер: 2.54 ГБ, Здоровье: 100%

Anonymous

0
5|2

42
0

22 апр 2014, 11:40

Anonymous Перейти к последнему сообщению

В этой теме нет новых непрочитанных сообщений. Скачать торрент Проверен История дельфина 2 / Dolphin Tale 2 (2014) HDRip [576p] iPad (Line)

в форуме Фильмы для iPod, iPhone, iPad, Размер: 3.22 ГБ, Здоровье: 0%

Гость

0
0|0

48
0

12 дек 2014, 22:55

Гость Перейти к последнему сообщению

В этой теме нет новых непрочитанных сообщений. Скачать торрент Проверен Любовный роман - Nicole Burnham / Николь Бернем - The Knight's Kiss / Поцелуй рыцаря [2005, RTF, FB2, RB, RUS]

в форуме Женский роман, Размер: 5.23 МБ, Здоровье: 100%

Anonymous

0
1|0

3
0

28 авг 2016, 20:36

Anonymous Перейти к последнему сообщению

В этой теме нет новых непрочитанных сообщений. Скачать торрент Кама Сутра: История любви / Kama Sutra: A Tale of Love (1996) DVDRip | Full version

в форуме Драмы, Мелодрамы, Размер: 1.57 ГБ, Здоровье: 0%

Anonymous

0
0|0

66
0

22 мар 2014, 17:02

Anonymous Перейти к последнему сообщению



Сейчас этот форум просматривают: нет зарегистрированных пользователей и гости: 1


Вы не можете начинать темы
Вы не можете отвечать на сообщения
Вы не можете редактировать свои сообщения
Вы не можете удалять свои сообщения
Вы не можете добавлять вложения

Перейти:  

!ВНИМАНИЕ!
 Ресурс не предоставляет электронные версии произведений, а занимается лишь коллекционированием и каталогизацией ссылок, присылаемых и публикуемых на форуме нашими читателями. Если вы являетесь правообладателем какого-либо представленного материала и не желаете чтобы ссылка на него находилась в нашем каталоге, свяжитесь с нами и мы незамедлительно удалим её. Файлы для обмена на трекере предоставлены пользователями сайта, и администрация не несёт ответственности за их содержание. Просьба не заливать файлы, защищенные авторскими правами, а также файлы нелегального содержания!