На всех торрентах на трекере установлена скидка на скачивание в размере 100 процентов(а).
 Возможность скачивания торрента НЕ зависит от ограничений при низком ратио, низком аплоаде, требуемом ратио или требуемом аплоаде.


Начать новую тему Ответить на тему
Статистика раздачи
Размер: 1.37 ГБ | Добавлен: 13 ноя 2014, 00:55 | Скачали: 4
Сидеров: 30  [0 байт/сек]    Личеров: 1  [0 байт/сек]
Пред. тема | След. тема 

Автор
Сообщение

СообщениеДобавлено: 13 ноя 2014, 00:55 

Название: Колдун
Оригинальное название: Sorcerer
Год выхода: 1977
Жанр: боевик, драма, приключения
Режиссер: Уильям Фридкин

В ролях: Рой Шайдер, Бруно Кремер, Франсиско Рабаль, Амиду, Рамон Биери, Питер Кэпелл, Карл Джон, Фридрих фон Ледебур, Чико Мартинес, Джо Спинелл

О фильме: Нефтяная компания ищет водителей, готовых перевезти на грузовике груз со взрывчаткой. А четверо мужчин не могут вернуться в родные страны и по разным причинам вынуждены скрываться в Латинской Америке. Им нечего терять, но в случае успешного завершения операции каждый получит по 10 тысяч долларов и гражданство. Их ждут 200 миль дороги, где за каждым поворотом подстерегает опасность.



Страна: США
Продолжительность: 02:01:31
Перевод: Авторский одноголосый (М. Иванов)


Кодек: XviD
Качество: HDRip
Видео: 672x384 (16:9), 23,976 fps, 1413 kbps, 0.228 bit/pixel
Звук: 48 kHz, AC3, 2/0 (L,R) ch, ~192.00 kbps



Общее
Полное имя : D:Sorcerer.1977.HDRip.avi
Формат : AVI
Формат/Информация : Audio Video Interleave
Размер файла : 1,37 Гбайт
Продолжительность : 2 ч. 1 м.
Общий поток : 1615 Кбит/сек
Название фильма : Sorcerer.1977.HDRip
Программа кодирования : VirtualDubModRus 1.5.10.2 (build 2542/release)
Правообладатель : rip by Rulya74

Видео
Идентификатор : 0
Формат : MPEG-4 Visual
Профиль формата : Advanced Simple@L5
Параметр BVOP формата : 1
Параметр QPel формата : Нет
Параметр GMC формата : Без точки перехода
Параметр матрицы формата : Выборочная
Идентификатор кодека : XVID
Идентификатор кодека/Подсказка : XviD
Продолжительность : 2 ч. 1 м.
Битрейт : 1413 Кбит/сек
Ширина : 672 пикселя
Высота : 384 пикселя
Соотношение сторон : 16:9
Частота кадров : 23,976 кадра/сек
Цветовое пространство : YUV
Субдискретизация насыщенности : 4:2:0
Битовая глубина : 8 бит
Тип развёртки : Прогрессивная
Метод сжатия : С потерями
Бит/(Пиксели*Кадры) : 0.228
Размер потока : 1,20 Гбайт (88%)
Библиотека кодирования : XviD 66

Аудио
Идентификатор : 1
Формат : AC-3
Формат/Информация : Audio Coding 3
Расширение режима : CM (complete main)
Параметр Endianness формата : Big
Идентификатор кодека : 2000
Продолжительность : 2 ч. 1 м.
Вид битрейта : Постоянный
Битрейт : 192 Кбит/сек
Каналы : 2 канала
Расположение каналов : Front: L R
Частота : 48,0 КГц
Битовая глубина : 16 бит
Метод сжатия : С потерями
Размер потока : 167 Мбайт (12%)
Выравнивание : Разделение по промежуткам
Продолжительность промежутка : 42 мс. (1,00 видеокадр)
Время предзагрузки промежутка : 500 мс.
Заголовок : Авторский одноголосый (М. Иванов)

загрузка...
Правила, инструкции, FAQ!!!
Торрент  Добавлен [13 ноя 2014, 00:55] Скачать торрент
Скачать торрент
[ Размер 14.2 КБ / Просмотров 15 ]

Статус
Проверен 
 
Размер  1.37 ГБ
Приватный: Нет (DHT включён)
.torrent скачан  4
Как залить торрент? | Как скачать Torrent? | Как смотреть и слушать онлайн?  


     Отправить личное сообщение
   
Страница 1 из 1
Показать сообщения за:  Поле сортировки  
Начать новую тему Ответить на тему

   Похожие торренты   Автор   Ответы   Просмотры   Последнее сообщение 
В этой теме нет новых непрочитанных сообщений. Скачать торрент Проверен Колдун / Sorcerer (1977) BDRip 720p

в форуме 720p | 1080p, Размер: 10.63 ГБ, Здоровье: 64%

Anonymous

0
33|51

42
13

12 ноя 2014, 19:59

Anonymous Перейти к последнему сообщению

В этой теме нет новых непрочитанных сообщений. Скачать торрент Проверен (Heavy Metal) Sorcerer - Sorcerer - 2011, MP3, 192 kbps

в форуме Heavy, Power, Progressive (Metal), Размер: 107.35 МБ, Здоровье: 0%

Anonymous

0
0|0

0
0

09 окт 2016, 09:12

Anonymous Перейти к последнему сообщению

В этой теме нет новых непрочитанных сообщений. Скачать торрент Ученик чародея / The Sorcerer's Apprentice (2010) HDRip

в форуме Фантастика, Фэнтези, Размер: 1.4 ГБ, Здоровье: 100%

Anonymous

0
67|1

39
376

17 дек 2013, 22:51

Anonymous Перейти к последнему сообщению

В этой теме нет новых непрочитанных сообщений. Скачать торрент Ученик чародея / The Sorcerer's Apprentice (2010) BDRip 720p | D, A

в форуме 720p | 1080p, Размер: 4.64 ГБ, Здоровье: 0%

Anonymous

0
0|0

44
1

17 дек 2013, 22:55

Anonymous Перейти к последнему сообщению

В этой теме нет новых непрочитанных сообщений. Скачать торрент Проверен [SACD-R][OF] Miles Davis - Sorcerer - 1967/2007 (Modal)

в форуме Hi-Res stereo (Джаз и Блюз), Размер: 1.63 ГБ, Здоровье: 100%

Anonymous

0
3|3

13
0

27 авг 2016, 14:07

Anonymous Перейти к последнему сообщению



Сейчас этот форум просматривают: нет зарегистрированных пользователей и гости: 4


Вы не можете начинать темы
Вы не можете отвечать на сообщения
Вы не можете редактировать свои сообщения
Вы не можете удалять свои сообщения
Вы не можете добавлять вложения

Перейти:  

!ВНИМАНИЕ!
 Ресурс не предоставляет электронные версии произведений, а занимается лишь коллекционированием и каталогизацией ссылок, присылаемых и публикуемых на форуме нашими читателями. Если вы являетесь правообладателем какого-либо представленного материала и не желаете чтобы ссылка на него находилась в нашем каталоге, свяжитесь с нами и мы незамедлительно удалим её. Файлы для обмена на трекере предоставлены пользователями сайта, и администрация не несёт ответственности за их содержание. Просьба не заливать файлы, защищенные авторскими правами, а также файлы нелегального содержания!