На всех торрентах на трекере установлена скидка на скачивание в размере 100 процентов(а).
 Возможность скачивания торрента НЕ зависит от ограничений при низком ратио, низком аплоаде, требуемом ратио или требуемом аплоаде.


Начать новую тему Ответить на тему
Статистика раздачи
Размер: 1.45 ГБ | Добавлен: 09 ноя 2014, 20:47 | Скачали: 0
Сидеров: 0  [0 байт/сек]    Личеров: 1  [0 байт/сек]
Пред. тема | След. тема 

Автор
Сообщение

СообщениеДобавлено: 09 ноя 2014, 20:47 

Год выпуска: 1980
Жанр: Боевик, Драма, Военный
Производство: США

Описание фильма: Эпопея Сэмюэла Фуллера о Второй Мировой войне, повествующая о сражениях, в которых участвовал 1-й пехотный дивизион США. Четыре молодых необстрелянных бойца под командованием ветерана — сержанта, оказываются лицом к лицу с врагом в зыбучих песках Северной Африки. Прежде чем они станут легендой, им предстоит пройти суровые испытания.

Режиссер: Сэмюэл Фуллер
Актеры: Ли Марвин, Марк Хэмилл, Роберт Кэрредин, Бобби Ди Чикко, Келли Уорд, Стефан Одран, Зигфрид Раух, Серж Маркан, Чарльз Макколей, Ален Дуте...

Продолжительность: 01:53:00
Качество видео: BDRip [H.264]
Перевод: Многоголосый закадровый (Мост Видео)



Дата мировой премьеры: 28 мая 1980

Видеокодек: MPEG-4 AVC/H.264
Битрейт видео: ~1642 kbps
Размер кадра: 960x544
Аудиокодек: AC3 2.0
Битрейт аудио: 192.00 kbps

Релиз от:
Общее
Уникальный идентификатор : 177143406760991060339355990797697117361 (0x8544944361EEBAB8820B8CDFE5F76CB1)
Полное имя : D:TorrentThe Big Red One.1980.BDRip-AVC.mkv
Формат : Matroska
Версия формата : Version 4 / Version 2
Размер файла : 1,45 Гбайт
Продолжительность : 1 ч. 53 м.
Общий поток : 1835 Кбит/сек
Дата кодирования : UTC 2014-11-01 04:47:47
Программа кодирования : mkvmerge v7.3.0 ('Nouages') 64bit built on Oct 22 2014 18:53:34
Библиотека кодирования : libebml v1.3.0 + libmatroska v1.4.1

Видео
Идентификатор : 1
Формат : AVC
Формат/Информация : Advanced Video Codec
Профиль формата :
Параметр CABAC формата : Да
Параметр ReFrames формата : 11 кадров
Идентификатор кодека : V_MPEG4/ISO/AVC
Продолжительность : 1 ч. 53 м.
Битрейт : 1642 Кбит/сек
Ширина : 960 пикселей
Высота : 544 пикселя
Соотношение сторон : 16:9
Режим частоты кадров : Постоянный
Частота кадров : 23,976 кадра/сек
Цветовое пространство : YUV
Субдискретизация насыщенности : 4:2:0
Битовая глубина : 8 бит
Тип развёртки : Прогрессивная
Бит/(Пиксели*Кадры) : 0.131
Размер потока : 1,27 Гбайт (88%)
Библиотека кодирования : x264 core 133 r2334 a3ac64b
Настройки программы : cabac=1 / ref=11 / deblock=1:-3:-3 / analyse=0x3:0x113 / me=umh / subme=10 / psy=1 / psy_rd=1.00:0.00 / mixed_ref=1 / me_range=48 / chroma_me=1 / trellis=2 / 8x8dct=1 / cqm=0 / deadzone=21,11 / fast_pskip=0 / chroma_qp_offset=-2 / threads=6 / lookahead_threads=1 / sliced_threads=0 / nr=0 / decimate=1 / interlaced=0 / bluray_compat=0 / constrained_intra=0 / bframes=9 / b_pyramid=2 / b_adapt=1 / b_bias=0 / direct=3 / weightb=1 / open_gop=0 / weightp=2 / keyint=240 / keyint_min=23 / scenecut=40 / intra_refresh=0 / rc_lookahead=40 / rc=2pass / mbtree=1 / bitrate=1642 / ratetol=1.0 / qcomp=0.60 / qpmin=0 / qpmax=69 / qpstep=4 / cplxblur=20.0 / qblur=0.5 / vbv_maxrate=62500 / vbv_bufsize=78125 / nal_hrd=none / ip_ratio=1.40 / aq=1:1.00
Default : Да
Forced : Нет

Аудио
Идентификатор : 2
Формат : AC-3
Формат/Информация : Audio Coding 3
Расширение режима : CM (complete main)
Параметр Endianness формата : Big
Идентификатор кодека : A_AC3
Продолжительность : 1 ч. 53 м.
Вид битрейта : Постоянный
Битрейт : 192 Кбит/сек
Каналы : 2 канала
Расположение каналов : Front: L R
Частота : 48,0 КГц
Битовая глубина : 16 бит
Метод сжатия : С потерями
Размер потока : 156 Мбайт (10%)
Заголовок : Профессиональный (многоголосый закадровый) Мост Видео
Язык : Russian
Default : Да
Forced : Нет
Скриншоты:

загрузка...
Правила, инструкции, FAQ!!!
Торрент  Добавлен [09 ноя 2014, 20:47] Скачать торрент
Скачать торрент
[ Размер 15.26 КБ / Просмотров 6 ]

Статус
Проверен 
 
Размер  1.45 ГБ
Приватный: Нет (DHT включён)
.torrent скачан  0
Как залить торрент? | Как скачать Torrent? | Как смотреть и слушать онлайн?  


     Отправить личное сообщение
   
Страница 1 из 1
Показать сообщения за:  Поле сортировки  
Начать новую тему Ответить на тему

   Похожие торренты   Автор   Ответы   Просмотры   Последнее сообщение 
В этой теме нет новых непрочитанных сообщений. Скачать торрент Красная планета / Red Planet (2000) BDRip 1080p

в форуме 720p | 1080p, Размер: 7.76 ГБ, Здоровье: 100%

Anonymous

0
39|25

42
33

16 янв 2014, 20:02

Anonymous Перейти к последнему сообщению

В этой теме нет новых непрочитанных сообщений. Скачать торрент Проверен Красная черепаха / The Red Turtle / La tortue rouge (2016) BDRip 720p

в форуме Зарубежные мультфильмы (HD Video), Размер: 2.17 ГБ, Здоровье: 1%

Гость

0
1|62

39
0

01 дек 2016, 00:10

Гость Перейти к последнему сообщению

В этой теме нет новых непрочитанных сообщений. Скачать торрент Проверен [MP4 960x540]Красная Шапка против зла 3D / Hoodwinked Too! Hood VS. Evil 3D (2011) BDRip [Звук с TS]

в форуме Видео для смартфонов и КПК, Размер: 1.48 ГБ, Здоровье: ???%

Anonymous

0
0|1

76
0

25 окт 2014, 23:31

Anonymous Перейти к последнему сообщению

В этой теме нет новых непрочитанных сообщений. Скачать торрент Проверен АБВГДейка. Единица (2006) DVDRip [H.264]

в форуме Развивающее Видео для детей, Размер: 479.25 МБ, Здоровье: 100%

Гость

0
4|1

17
0

01 дек 2015, 00:05

Гость Перейти к последнему сообщению

В этой теме нет новых непрочитанных сообщений. Скачать торрент Проверен Красная Шапка против зла в 3Д / Hoodwinked Too! Hood VS. Evil in 3D (Майкл Д’Иса-Хоган / Michael D'Isa-Hogan) [2011, США, мультфильм, семейный, BDrip-AVC] Half OverUnder / Вертикальная анаморфная стереопара

в форуме 3D Мультфильмы, Размер: 3.99 ГБ, Здоровье: 0%

Anonymous

0
0|0

2
0

07 сен 2016, 18:16

Anonymous Перейти к последнему сообщению



Сейчас этот форум просматривают: нет зарегистрированных пользователей и гости: 1


Вы не можете начинать темы
Вы не можете отвечать на сообщения
Вы не можете редактировать свои сообщения
Вы не можете удалять свои сообщения
Вы не можете добавлять вложения

Перейти:  

!ВНИМАНИЕ!
 Ресурс не предоставляет электронные версии произведений, а занимается лишь коллекционированием и каталогизацией ссылок, присылаемых и публикуемых на форуме нашими читателями. Если вы являетесь правообладателем какого-либо представленного материала и не желаете чтобы ссылка на него находилась в нашем каталоге, свяжитесь с нами и мы незамедлительно удалим её. Файлы для обмена на трекере предоставлены пользователями сайта, и администрация не несёт ответственности за их содержание. Просьба не заливать файлы, защищенные авторскими правами, а также файлы нелегального содержания!