На всех торрентах на трекере установлена скидка на скачивание в размере 100 процентов(а).
 Возможность скачивания торрента НЕ зависит от ограничений при низком ратио, низком аплоаде, требуемом ратио или требуемом аплоаде.


Начать новую тему Ответить на тему
Статистика раздачи
Размер: 1.46 ГБ | Добавлен: 06 ноя 2014, 15:58 | Скачали: 6
Сидеров: 21  [0 байт/сек]    Личеров: 6  [0 байт/сек]
Пред. тема | След. тема 

Автор
Сообщение

СообщениеДобавлено: 06 ноя 2014, 15:58 

Страна: Канада
Жанр: боевик
Год выпуска: 2011
Продолжительность: 01:40:02

Перевод: Профессиональный (многоголосый закадровый) [НТВ+]
Cубтитры: нет
Режиссер: Джонас Куастел / Jonas Kuastel

В ролях: Владимир Коморовски, Гэри Дэниелс, Брайан Флаэрти, Филип Грэйнджер, Арки Аломар, Флорин Роата, Корбин Томас, Александра Уивер, Питер Уэллер, Дорджн Захарджа...

Описание: Строптивый участник боёв без правил идёт наперекор воле босса, выигрывает схватку и сбегает с деньгами. По излишней самоуверенности он полагает, что мафию можно обмануть. Но это не так. Не успевает он выйти на улицу, как попадает в лапы громил и едва не погибает. На нем висит большой долг, который хозяин предлагает оплатить старшему брату…

Rip By: _Flash



Качество видео: HDRip
Формат видео: AVI

Видео: 688x384, 23.976 fps, XviD, ~1884 kbps avg, 0.297 bit/pixel
Аудио: 48 kHz, AC3 Dolby Digital, 2/0 (L,R) ch, ~192 kbps
General
Complete name : D:Docum and SettingsAdminМои документыDownloadsBoec.ponevole.2011.HDRip By _Flash..avi
Format : AVI
Format/Info : Audio Video Interleave
File size : 1.46 GiB
Duration : 1h 40mn
Overall bit rate : 2 085 Kbps
Writing application : VirtualDubMod 1.5.10.3 | http://www.virtualdub-fr.org || (build 2550/release)
Writing library : VirtualDubMod build 2550/release

Video
ID : 0
Format : MPEG-4 Visual
Format profile : Advanced Simple@L5
Format settings, BVOP : 1
Format settings, QPel : No
Format settings, GMC : No warppoints
Format settings, Matrix : Custom
Codec ID : XVID
Codec ID/Hint : XviD
Duration : 1h 40mn
Bit rate : 1 884 Kbps
Width : 688 pixels
Height : 384 pixels
Display aspect ratio : 16:9
Frame rate : 23.976 fps
Color space : YUV
Chroma subsampling : 4:2:0
Bit depth : 8 bits
Scan type : Progressive
Compression mode : Lossy
Bits/(Pixel*Frame) : 0.297
Stream size : 1.32 GiB (90%)
Writing library : XviD 64

Audio
ID : 1
Format : AC-3
Format/Info : Audio Coding 3
Mode extension : CM (complete main)
Format settings, Endianness : Big
Codec ID : 2000
Duration : 1h 40mn
Bit rate mode : Constant
Bit rate : 192 Kbps
Channel(s) : 2 channels
Channel positions : Front: L R
Sampling rate : 48.0 KHz
Bit depth : 16 bits
Compression mode : Lossy
Stream size : 137 MiB (9%)
Alignment : Split accross interleaves
Interleave, duration : 42 ms (1.00 video frame)
Interleave, preload duration : 500 ms




загрузка...
Правила, инструкции, FAQ!!!
Торрент  Добавлен [06 ноя 2014, 15:58] Скачать торрент
Скачать торрент
[ Размер 15.29 КБ / Просмотров 6 ]

Статус
Проверен 
 
Размер  1.46 ГБ
Приватный: Нет (DHT включён)
.torrent скачан  6
Как залить торрент? | Как скачать Torrent? | Как смотреть и слушать онлайн?  


     Отправить личное сообщение
   
Страница 1 из 1
Показать сообщения за:  Поле сортировки  
Начать новую тему Ответить на тему

   Похожие торренты   Автор   Ответы   Просмотры   Последнее сообщение 
В этой теме нет новых непрочитанных сообщений. Скачать торрент Проверен Боец поневоле / Forced to Fight (2011) BDRip 720p | P

в форуме 720p | 1080p, Размер: 3.45 ГБ, Здоровье: 100%

Anonymous

0
30|6

23
217

06 ноя 2014, 15:54

Anonymous Перейти к последнему сообщению

В этой теме нет новых непрочитанных сообщений. Скачать торрент Проверен Боец поневоле / Forced to Fight (2011) BDRip 1080p | P

в форуме 720p | 1080p, Размер: 11.06 ГБ, Здоровье: 100%

Anonymous

0
17|2

25
92

06 ноя 2014, 15:50

Anonymous Перейти к последнему сообщению

В этой теме нет новых непрочитанных сообщений. Скачать торрент Проверен [PSP] Боец / The Fighter (2010) HDRip

в форуме Видео для смартфонов и КПК, Размер: 561.21 МБ, Здоровье: ???%

Anonymous

0
0|1

21
0

25 окт 2014, 23:15

Anonymous Перейти к последнему сообщению

В этой теме нет новых непрочитанных сообщений. Скачать торрент Проверен [iPad] Воровка книг / The Book Thief (Брайан Персивал / Brian Percival ) [2013, США, Германия, драма, военный, BDRip, SD (576p)] DUB + Original + sub (rus forced, eng forced, rus, eng)

в форуме Фильмы для iPod, iPhone, iPad, Размер: 2.31 ГБ, Здоровье: 100%

Гость

0
41|11

29
0

14 май 2015, 00:26

Гость Перейти к последнему сообщению

В этой теме нет новых непрочитанных сообщений. Скачать торрент Проверен (Heavy Metal) [CD] Forced Entry - Forced Entry - 1988, FLAC (image+.cue), lossless

в форуме Heavy, Power, Progressive (Metal), Размер: 263.61 МБ, Здоровье: 0%

Anonymous

0
0|0

4
0

11 окт 2016, 00:48

Anonymous Перейти к последнему сообщению



Сейчас этот форум просматривают: нет зарегистрированных пользователей и гости: 1


Вы не можете начинать темы
Вы не можете отвечать на сообщения
Вы не можете редактировать свои сообщения
Вы не можете удалять свои сообщения
Вы не можете добавлять вложения

Перейти:  

!ВНИМАНИЕ!
 Ресурс не предоставляет электронные версии произведений, а занимается лишь коллекционированием и каталогизацией ссылок, присылаемых и публикуемых на форуме нашими читателями. Если вы являетесь правообладателем какого-либо представленного материала и не желаете чтобы ссылка на него находилась в нашем каталоге, свяжитесь с нами и мы незамедлительно удалим её. Файлы для обмена на трекере предоставлены пользователями сайта, и администрация не несёт ответственности за их содержание. Просьба не заливать файлы, защищенные авторскими правами, а также файлы нелегального содержания!