На всех торрентах на трекере установлена скидка на скачивание в размере 100 процентов(а).
 Возможность скачивания торрента НЕ зависит от ограничений при низком ратио, низком аплоаде, требуемом ратио или требуемом аплоаде.


Начать новую тему Ответить на тему
Статистика раздачи
Размер: 1.46 ГБ | Добавлен: 31 окт 2014, 20:33 | Скачали: 0
Сидеров: 3  [0 байт/сек]    Личеров: 0  [0 байт/сек]
Пред. тема | След. тема 

Автор
Сообщение

СообщениеДобавлено: 31 окт 2014, 20:33 

Название: В смертельной опасности
Оригинальное название: On Deadly Ground
Год выхода: 1994
Жанр: боевик, триллер, приключения
Режиссер: Стивен Сигал
В ролях: Стивен Сигал, Майкл Кейн, Джоан Чэнь, Джон К. МакГинли, Р. Ли Эрми, Шэри Шаттак, Билли Боб Торнтон, Ричард Хэмилтон, Чиф Ирвин Бринк, Апангулук Чарли Кайрайуак

О фильме:
Форрест Тафт – это человек, который всегда выбирает только одну сторону. Тафт – специалист по борьбе с пожарами нефтяных скважин, но ему приходится вступать в еще более горячую битву, когда он сталкивается с Майклом Дженнингсом – хозяином нефтяной компании, на одной из буровых которой произошла авария, и нефть выливается в океан.

Но нажива для таких людей превыше всего. И тогда Тафт дает им понять: если они причинят вред земле, которую он любит, они – в смертельной опасности.


Страна: США
Студия: Seagal/Nasso Productions, Warner Bros. Pictures
Продолжительность: 01:41:00
Перевод: Профессиональный (полное дублирование)|Мост-Видео|


Кодек: XviD
Качество: WEB-DLRip
Видео: 720x304, 23,976 fps, 1665 kbps
Звук: 48 kHz, AC3, 3/2 (L,C,R,l,r) + LFE ch, ~384.00 kbps
Общее
Полное имя : On.Deadly.Ground.1994.WEB-DLRip.avi
Формат : AVI
Формат/Информация : Audio Video Interleave
Размер файла : 1,46 Гбайт
Продолжительность : 1 ч. 41 м.
Общий поток : 2058 Кбит/сек
Программа кодирования : VirtualDubMod 1.5.10.3 | http://www.virtualdub-fr.org || (build 2550/release)
Библиотека кодирования : VirtualDubMod build 2550/release

Видео
Идентификатор : 0
Формат : MPEG-4 Visual
Профиль формата : Advanced Simple@L5
Параметр BVOP формата : 1
Параметр QPel формата : Нет
Параметр GMC формата : Без точки перехода
Параметр матрицы формата : Выборочная
Идентификатор кодека : XVID
Идентификатор кодека/Подсказка : XviD
Продолжительность : 1 ч. 41 м.
Битрейт : 1665 Кбит/сек
Ширина : 720 пикс.
Высота : 304 пикс.
Соотношение сторон : 2,35:1
Частота кадров : 23,976 кадр/сек
Цветовое пространство : YUV
Подвыборка цветности : 4:2:0
Битовая глубина : 8 бит
Тип развёртки : Прогрессивная
Метод сжатия : С потерями
Бит/(Пиксели*Кадры) : 0.317
Размер потока : 1,18 Гбайт (81%)
Библиотека кодирования : XviD 73

Аудио
Идентификатор : 1
Формат : AC-3
Формат/Информация : Audio Coding 3
Расширение режима : CM (complete main)
Идентификатор кодека : 2000
Продолжительность : 1 ч. 41 м.
Вид битрейта : Постоянный
Битрейт : 384 Кбит/сек
Канал(ы) : 6 канала(ов)
Расположение каналов : Front: L C R, Side: L R, LFE
Частота : 48,0 КГц
Битовая глубина : 16 бит
Метод сжатия : С потерями
Размер потока : 279 Мбайт (19%)
Выравнивание : Разделение по промежуткам
Продолжительность промежутка : 42 мс. (1,00 видеокадр)
Время предзагрузки промежутка : 500 ms


Релиз от: Leon-masl
загрузка...
Правила, инструкции, FAQ!!!
Торрент  Добавлен [31 окт 2014, 20:33] Скачать торрент
Скачать торрент
[ Размер 15.27 КБ / Просмотров 6 ]

Статус
Проверен 
 
Размер  1.46 ГБ
Приватный: Нет (DHT включён)
.torrent скачан  0
Как залить торрент? | Как скачать Torrent? | Как смотреть и слушать онлайн?  


     Отправить личное сообщение
   
Страница 1 из 1
Показать сообщения за:  Поле сортировки  
Начать новую тему Ответить на тему

   Похожие торренты   Автор   Ответы   Просмотры   Последнее сообщение 
В этой теме нет новых непрочитанных сообщений. Скачать торрент Проверен (Hard Rock) Deadly Tide - 8th Deadly Sin - 2013, MP3, 320 kbps

в форуме Classic Rock & Hard Rock, Размер: 113.23 МБ, Здоровье: 0%

Anonymous

0
0|0

0
0

13 ноя 2016, 17:01

Anonymous Перейти к последнему сообщению

В этой теме нет новых непрочитанных сообщений. Скачать торрент Deadly Tide - 8th Deadly Sin (2013) [MP3|320 кб/с]<Hard Rock>

в форуме Рок, Панк, Метал, Альтернатива, Размер: 113.23 МБ, Здоровье: 0%

Anonymous

0
0|0

15
0

25 фев 2014, 14:27

Anonymous Перейти к последнему сообщению

В этой теме нет новых непрочитанных сообщений. Скачать торрент Проверен (Progressive Rock, Free Improvisation) The 16 Deadly Improvs - The Revenge Of The 16 Deadly Improvs - 2008, FLAC (tracks+.cue), lossless

в форуме Progressive & Art-Rock, Размер: 465.19 МБ, Здоровье: 0%

Anonymous

0
0|0

2
0

29 авг 2016, 22:56

Anonymous Перейти к последнему сообщению

В этой теме нет новых непрочитанных сообщений. Скачать торрент Проверен (Techno, Acid) [EP][16/44] XP ‎– Ground Hog - 1994, FLAC (tracks)

в форуме Электронная музыка (оцифровки), Размер: 100.15 МБ, Здоровье: 100%

Anonymous

0
1|0

2
0

15 сен 2016, 20:09

Anonymous Перейти к последнему сообщению

В этой теме нет новых непрочитанных сообщений. Скачать торрент Проверен (Techno, Acid) [12"][24/96] XP - Ground Hog - 1994, FLAC (tracks)

в форуме Электронная музыка (оцифровки), Размер: 346.52 МБ, Здоровье: 0%

Anonymous

0
0|0

0
0

14 сен 2016, 22:33

Anonymous Перейти к последнему сообщению



Сейчас этот форум просматривают: нет зарегистрированных пользователей и гости: 1


Вы не можете начинать темы
Вы не можете отвечать на сообщения
Вы не можете редактировать свои сообщения
Вы не можете удалять свои сообщения
Вы не можете добавлять вложения

Перейти:  

!ВНИМАНИЕ!
 Ресурс не предоставляет электронные версии произведений, а занимается лишь коллекционированием и каталогизацией ссылок, присылаемых и публикуемых на форуме нашими читателями. Если вы являетесь правообладателем какого-либо представленного материала и не желаете чтобы ссылка на него находилась в нашем каталоге, свяжитесь с нами и мы незамедлительно удалим её. Файлы для обмена на трекере предоставлены пользователями сайта, и администрация не несёт ответственности за их содержание. Просьба не заливать файлы, защищенные авторскими правами, а также файлы нелегального содержания!