На всех торрентах на трекере установлена скидка на скачивание в размере 100 процентов(а).
 Возможность скачивания торрента НЕ зависит от ограничений при низком ратио, низком аплоаде, требуемом ратио или требуемом аплоаде.


Начать новую тему Ответить на тему
Статистика раздачи
Размер: 2.05 ГБ | Добавлен: 17 мар 2013, 16:18 | Скачали: 0
Сидеров: 0  [0 байт/сек]    Личеров: 0  [0 байт/сек]
Пред. тема | След. тема 

Автор
Сообщение

СообщениеДобавлено: 17 мар 2013, 16:18 

Охота / Травля / Преследуемый / The Hunted




Название: Охота / Травля / Преследуемый
Оригинальное название: The Hunted
Год выхода: 1995
Жанр: Боевик, Триллер, Драма
Режиссер: Дж.Ф. Лоутон / J.F. Lawton

В фильме снимались: Кристофер Ламберт, Джон Лоун, Джоан Чэнь, Йошио Харада, Ёко Симада, Мари Нацуки, Так Кубота, Масуми Окада, Татсуя Ириэ, Майкл Уоррен

Вкратце: Бизнесмен из Нью-Йорка Поль Расин приехал в Японию по делам своей фирмы. Там он провёл ночь с незнакомой, очаровательной девушкой и стал свидетелем её убийства. Вокруг Поля разворачиваются события: кровавые и загадочные, связаны они с враждой кланов, древних и могучих кланов ниндзя. Поля преследуют и ему приходится принять бой...


Страна: США
Продолжительность: 01:50:05
Перевод: Профессиональный (двухголосый закадровый) Премьер, Авторский (одноголосый закадровый) Ю. Живов

Формат: avi
Кодек: Xvid
Качество: DVDRip с DVD9
Видео: 704x384, 23,976 fps, ~2012 Kbps
Аудио 1: AC3, 2 ch, 192.00 kbps..............Профессиональный (двухголосый закадровый) Премьер
Аудио 2: AC3, 6 ch, 448.00 kbps..............Авторский (одноголосый закадровый) Ю. Живов
General
Complete name : Ohota_Presleduemiy_DVDRip.avi
Format : AVI
Format/Info : Audio Video Interleave
Format profile : OpenDML
File size : 2.05 GiB
Duration : 1h 50mn
Overall bit rate : 2 670 Kbps
Writing application : VirtualDubMod 1.5.10.2 (build 2542/release)
Writing library : VirtualDubMod build 2542/release

Video
ID : 0
Format : MPEG-4 Visual
Format profile : Advanced Simple@L5
Format settings, BVOP : 1
Format settings, QPel : No
Format settings, GMC : No warppoints
Format settings, Matrix : Custom
Codec ID : XVID
Codec ID/Hint : XviD
Duration : 1h 50mn
Bit rate : 2 012 Kbps
Width : 704 pixels
Height : 384 pixels
Display aspect ratio : 1.85:1
Frame rate : 23.976 fps
Color space : YUV
Chroma subsampling : 4:2:0
Bit depth : 8 bits
Scan type : Progressive
Compression mode : Lossy
Bits/(Pixel*Frame) : 0.310
Stream size : 1.55 GiB (75%)
Writing library : XviD 65

Audio #1
ID : 1
Format : AC-3
Format/Info : Audio Coding 3
Mode extension : CM (complete main)
Format settings, Endianness : Big
Codec ID : 2000
Duration : 1h 50mn
Bit rate mode : Constant
Bit rate : 192 Kbps
Channel(s) : 2 channels
Channel positions : Front: L R
Sampling rate : 48.0 KHz
Bit depth : 16 bits
Compression mode : Lossy
Delay relative to video : 1s 0ms
Stream size : 151 MiB (7%)
Alignment : Split accross interleaves
Interleave, duration : 42 ms (1.00 video frame)
Interleave, preload duration : 500 ms

Audio #2
ID : 2
Format : AC-3
Format/Info : Audio Coding 3
Mode extension : CM (complete main)
Format settings, Endianness : Big
Codec ID : 2000
Duration : 1h 50mn
Bit rate mode : Constant
Bit rate : 448 Kbps
Channel(s) : 6 channels
Channel positions : Front: L C R, Side: L R, LFE
Sampling rate : 48.0 KHz
Bit depth : 16 bits
Compression mode : Lossy
Delay relative to video : 1s 0ms
Stream size : 353 MiB (17%)
Alignment : Split accross interleaves
Interleave, duration : 42 ms (1.00 video frame)
Interleave, preload duration : 500 ms

загрузка...
Правила, инструкции, FAQ!!!
Торрент  Добавлен [17 мар 2013, 16:18] Скачать торрент
Скачать торрент
[ Размер 10.87 КБ / Просмотров 8 ]

Статус  
 
Размер  2.05 ГБ
Приватный: Нет (DHT включён)
.torrent скачан  0
Как залить торрент? | Как скачать Torrent? | Как смотреть и слушать онлайн?  


     Отправить личное сообщение
   
Страница 1 из 1
Показать сообщения за:  Поле сортировки  
Начать новую тему Ответить на тему

   Похожие торренты   Автор   Ответы   Просмотры   Последнее сообщение 
В этой теме нет новых непрочитанных сообщений. Скачать торрент Охота на Веронику / Veronica Guerin (Джоэл Шумахер / Joel Schumacher) [2003 г., биография, триллер, драма, DVDRip]

в форуме Триллеры, Размер: 1.46 ГБ, Здоровье: 100%

Anonymous

0
38|13

58
2

28 апр 2014, 22:40

Anonymous Перейти к последнему сообщению

В этой теме нет новых непрочитанных сообщений. Скачать торрент Хаос / Chaos [2005 г., Боевик / Детектив / Драма / Триллер, DVDRip]

в форуме Боевики, Размер: 1.37 ГБ, Здоровье: 100%

Anonymous

0
5|1

43
0

10 фев 2014, 13:05

Anonymous Перейти к последнему сообщению

В этой теме нет новых непрочитанных сообщений. Скачать торрент Мюнхен: Возмездие / Munich (Стивен Спилберг) [2005 г., Драма, Триллер, Боевик, DVDRip]

в форуме Драмы, Мелодрамы, Размер: 699.96 МБ, Здоровье: 100%

Anonymous

0
20|4

37
12

03 фев 2014, 12:31

Anonymous Перейти к последнему сообщению

В этой теме нет новых непрочитанных сообщений. Скачать торрент Проверен [iPhone] Королевство / The Kingdom (Питер Берг) [2007 г., Боевик, триллер, драма, DVDRip]

в форуме Фильмы для iPod, iPhone, iPad, Размер: 875.91 МБ, Здоровье: 100%

Anonymous

0
1|0

41
0

14 май 2015, 00:23

Anonymous Перейти к последнему сообщению

В этой теме нет новых непрочитанных сообщений. Скачать торрент Проверен [iPod] Неуправляемый / Unstoppable (Тони Скотт) [2010 г., боевик, триллер, драма, DVDRip]

в форуме Фильмы для iPod, iPhone, iPad, Размер: 435.07 МБ, Здоровье: 100%

Anonymous

0
1|0

20
0

18 май 2015, 10:47

Anonymous Перейти к последнему сообщению



Сейчас этот форум просматривают: нет зарегистрированных пользователей и гости: 2


Вы не можете начинать темы
Вы не можете отвечать на сообщения
Вы не можете редактировать свои сообщения
Вы не можете удалять свои сообщения
Вы не можете добавлять вложения

Перейти:  

!ВНИМАНИЕ!
 Ресурс не предоставляет электронные версии произведений, а занимается лишь коллекционированием и каталогизацией ссылок, присылаемых и публикуемых на форуме нашими читателями. Если вы являетесь правообладателем какого-либо представленного материала и не желаете чтобы ссылка на него находилась в нашем каталоге, свяжитесь с нами и мы незамедлительно удалим её. Файлы для обмена на трекере предоставлены пользователями сайта, и администрация не несёт ответственности за их содержание. Просьба не заливать файлы, защищенные авторскими правами, а также файлы нелегального содержания!