На всех торрентах на трекере установлена скидка на скачивание в размере 100 процентов(а).
 Возможность скачивания торрента НЕ зависит от ограничений при низком ратио, низком аплоаде, требуемом ратио или требуемом аплоаде.


Начать новую тему Ответить на тему
Статистика раздачи
Размер: 1.54 ГБ | Добавлен: 28 сен 2014, 20:46 | Скачали: 0
Сидеров: 0  [0 байт/сек]    Личеров: 0  [0 байт/сек]
Пред. тема | След. тема 

Автор
Сообщение

СообщениеДобавлено: 28 сен 2014, 20:46 

Год выпуска: 2014
Производство: США | Strohberry Films
Жанр: Боевик

Режиссер: Эрни Барбараш
Актеры: Нил МакДонаф, Майкл Джей Уайт, Лайла Али, Милли Руперто, Латиф Кроудер, Хазуки Като, Масаси Одате, Жасмин Каратини, Джонни Янг

Описание фильма: Джон Чепмен по кличке «Сокол» отправляется в Бразилию, чтобы выследить убийц своей сестры.
В процессе поисков он сталкивается с контролируемым японской мафией подпольным миром наркотиков, проституции и продажных полицейских

Перевод: Одноголосый, закадровый, любительский [R.A.I.M]
Субтитры: Отсутствуют



Дата мировой премьеры: 5 сентября 2014

Продолжительность: 01:40:59
Качество видео: WEB-DLRip

Видеокодек: MPEG-4 AVC/H.264
Битрейт видео: ~1 369 kbps avg, 23.976 fps, 0.206 bit/pixel
Размер кадра: 720x384
Аудио 1: AC3 5.1, 384 kbps - Английский
Аудио 2: AC3 5.1, 384 kbps - Русский
Код:
Код:
Общее
Уникальный идентификатор                 : 188252387230291994046874008314488738751 (0x8DA017499BAAB252A19EE80E1C0ED3BF)
Полное имя                               : D:\Фильмы\Falcon.Rising.2014.WEBrip.x264.mkv
Формат                                   : Matroska
Версия формата                           : Version 2
Размер файла                             : 1,54 Гбайт
Продолжительность                        : 1 ч. 40 м.
Режим общего битрейта                    : Переменный
Общий поток                              : 2180 Кбит/сек
Название фильма                          : by_zzZGVvv
Дата кодирования                         : UTC 2014-09-28 09:23:32
Программа кодирования                    : mkvmerge v5.8.0 ('No Sleep / Pillow') built on Sep  2 2012 15:37:04
Библиотека кодирования                   : libebml v1.2.3 + libmatroska v1.3.0

Видео
Идентификатор                            : 1
Формат                                   : AVC
Формат/Информация                        : Advanced Video Codec
Профиль формата                          :
Параметр CABAC формата                   : Да
Параметр ReFrames формата                : 3 кадра
Идентификатор кодека                     : V_MPEG4/ISO/AVC
Продолжительность                        : 1 ч. 40 м.
Вид битрейта                             : Переменный
Битрейт                                  : 1369 Кбит/сек
Максимальный битрейт                     : 40,0 Мбит/сек
Ширина                                   : 720 пикселей
Высота                                   : 384 пикселя
Соотношение сторон                       : 1,85:1
Режим частоты кадров                     : Постоянный
Частота кадров                           : 23,976 кадра/сек
Цветовое пространство                    : YUV
Субдискретизация насыщенности            : 4:2:0
Битовая глубина                          : 8 бит
Тип развёртки                            : Прогрессивная
Бит/(Пиксели*Кадры)                      : 0.206
Размер потока                            : 989 Мбайт (63%)
Библиотека кодирования                   : x264 core 142 r2431 ac76440
Настройки программы                      : cabac=1 / ref=4 / deblock=1:-1:-1 / analyse=0x3:0x113 / me=hex / subme=7 / psy=1 / psy_rd=1.00:0.15 / mixed_ref=1 / me_range=16 / chroma_me=1 / trellis=1 / 8x8dct=1 / cqm=0 / deadzone=21,11 / fast_pskip=1 / chroma_qp_offset=-3 / threads=10 / lookahead_threads=1 / sliced_threads=0 / slices=4 / nr=0 / decimate=1 / interlaced=0 / bluray_compat=0 / constrained_intra=0 / bframes=3 / b_pyramid=1 / b_adapt=1 / b_bias=0 / direct=1 / weightb=1 / open_gop=0 / weightp=0 / keyint=23 / keyint_min=1 / scenecut=40 / intra_refresh=0 / rc_lookahead=23 / rc=crf / mbtree=1 / crf=21.0 / qcomp=0.60 / qpmin=10 / qpmax=51 / qpstep=4 / vbv_maxrate=40000 / vbv_bufsize=30000 / crf_max=0.0 / nal_hrd=vbr / filler=0 / ip_ratio=1.40 / aq=1:1.00
Default                                  : Да
Forced                                   : Нет
Основные цвета                           : BT.709
Характеристики трансфера                 : BT.709
Коэффициенты матрицы                     : BT.709

Аудио #1
Идентификатор                            : 2
Формат                                   : AC-3
Формат/Информация                        : Audio Coding 3
Расширение режима                        : CM (complete main)
Параметр Endianness формата              : Big
Идентификатор кодека                     : A_AC3
Продолжительность                        : 1 ч. 40 м.
Вид битрейта                             : Постоянный
Битрейт                                  : 384 Кбит/сек
Каналы                                   : 6 каналов
Расположение каналов                     : Front: L C R, Side: L R, LFE
Частота                                  : 48,0 КГц
Битовая глубина                          : 16 бит
Метод сжатия                             : С потерями
Размер потока                            : 277 Мбайт (18%)
Язык                                     : English
Default                                  : Нет
Forced                                   : Нет

Аудио #2
Идентификатор                            : 3
Формат                                   : AC-3
Формат/Информация                        : Audio Coding 3
Расширение режима                        : CM (complete main)
Параметр Endianness формата              : Big
Идентификатор кодека                     : A_AC3
Продолжительность                        : 1 ч. 40 м.
Вид битрейта                             : Постоянный
Битрейт                                  : 384 Кбит/сек
Каналы                                   : 6 каналов
Расположение каналов                     : Front: L C R, Side: L R, LFE
Частота                                  : 48,0 КГц
Битовая глубина                          : 16 бит
Метод сжатия                             : С потерями
Размер потока                            : 277 Мбайт (18%)
Заголовок                                : RAIN
Язык                                     : Russian
Default                                  : Да
Forced                                   : Нет

Меню
00:00:00.000                             : en:1
00:11:30.000                             : en:2
00:24:35.000                             : en:3
00:34:28.000                             : en:4
00:44:48.000                             : en:5
00:55:28.000                             : en:6
01:06:32.000                             : en:7
01:16:01.000                             : en:8
01:30:53.000                             : en:9
01:35:44.000                             : en:10

Скриншоты:
загрузка...
Правила, инструкции, FAQ!!!
Торрент  Добавлен [28 сен 2014, 20:46] Скачать торрент
Скачать торрент
[ Размер 16.11 КБ / Просмотров 13 ]

Статус
Проверен 
 
Размер  1.54 ГБ
Приватный: Нет (DHT включён)
.torrent скачан  0
Как залить торрент? | Как скачать Torrent? | Как смотреть и слушать онлайн?  


     Отправить личное сообщение
   
Страница 1 из 1
Показать сообщения за:  Поле сортировки  
Начать новую тему Ответить на тему

   Похожие торренты   Автор   Ответы   Просмотры   Последнее сообщение 
В этой теме нет новых непрочитанных сообщений. Скачать торрент Проверен Восхождение Сокола / Falcon Rising (2014) WEB-DLRip [H.264/720p-LQ] [VO]

в форуме 720p | 1080p, Размер: 3.4 ГБ, Здоровье: 100%

Anonymous

0
84|2

23
0

28 сен 2014, 20:50

Anonymous Перейти к последнему сообщению

В этой теме нет новых непрочитанных сообщений. Скачать торрент Скуби-Ду! Маска голубого сокола / Scooby-Doo! Mask of the Blue Falcon (2012) BDRip 720p

в форуме Зарубежные мультфильмы (HD Video), Размер: 1.55 ГБ, Здоровье: 100%

Anonymous

0
15|3

59
3

25 дек 2013, 14:33

Anonymous Перейти к последнему сообщению

В этой теме нет новых непрочитанных сообщений. Скачать торрент Ганнибал: Восхождение / Hannibal Rising (Питер Веббер / Peter Webber) [2007 г., ужасы, триллер, драма, HDRip] [UNRATED] Dub

в форуме Ужасы, Размер: 1.46 ГБ, Здоровье: 100%

Anonymous

0
21|7

94
0

16 фев 2014, 13:08

Anonymous Перейти к последнему сообщению

В этой теме нет новых непрочитанных сообщений. Скачать торрент Ганнибал: Восхождение / Hannibal Rising (Питер Веббер / Peter Webber) [2007, триллер, драма, BDRip-AVC] MVO + AVO (Рябов) + Original + Subs (Rus, Eng)

в форуме 720p | 1080p, Размер: 2.88 ГБ, Здоровье: 100%

Anonymous

0
23|7

66
1

07 фев 2014, 11:42

Anonymous Перейти к последнему сообщению

В этой теме нет новых непрочитанных сообщений. Скачать торрент Проверен (Heavy Metal, Glam) Falcon Scream (клон раннего Skid Row) - 1995 - Falcon Scream, MP3, VBR 224 kbps

в форуме Heavy, Power, Progressive (Metal), Размер: 75.3 МБ, Здоровье: 0%

Anonymous

0
0|0

7
0

09 окт 2016, 15:07

Anonymous Перейти к последнему сообщению



Сейчас этот форум просматривают: нет зарегистрированных пользователей и гости: 1


Вы не можете начинать темы
Вы не можете отвечать на сообщения
Вы не можете редактировать свои сообщения
Вы не можете удалять свои сообщения
Вы не можете добавлять вложения

Перейти:  

!ВНИМАНИЕ!
 Ресурс не предоставляет электронные версии произведений, а занимается лишь коллекционированием и каталогизацией ссылок, присылаемых и публикуемых на форуме нашими читателями. Если вы являетесь правообладателем какого-либо представленного материала и не желаете чтобы ссылка на него находилась в нашем каталоге, свяжитесь с нами и мы незамедлительно удалим её. Файлы для обмена на трекере предоставлены пользователями сайта, и администрация не несёт ответственности за их содержание. Просьба не заливать файлы, защищенные авторскими правами, а также файлы нелегального содержания!