На всех торрентах на трекере установлена скидка на скачивание в размере 100 процентов(а).
 Возможность скачивания торрента НЕ зависит от ограничений при низком ратио, низком аплоаде, требуемом ратио или требуемом аплоаде.


Начать новую тему Ответить на тему
Статистика раздачи
Размер: 1.53 ГБ | Добавлен: 15 мар 2013, 11:49 | Скачали: 4
Сидеров: 2  [0 байт/сек]    Личеров: 20  [0 байт/сек]
Пред. тема | След. тема 

Автор
Сообщение

СообщениеДобавлено: 15 мар 2013, 11:49 

Нарушение территории / Чужая территория / Trespass


Русское название: Нарушение территории / Чужая территория
Оригинальное название: Trespass
Год выпуска: 1992
Жанр: Боевик, Приключения, Криминал

Описание фильма:
Дон и Винс — пожарные из Арканзаса, решившие, что нарвались на «золотую мину», когда им в руки попала «карта сокровищ», ведущая к золоту, украденному из католической церкви более 50 лет назад. Теперь его стоимость составляет более миллиона.
Золото спрятано где-то в потолке огромной, заброшенной фабрики в Восточном гетто Сент-Луиса. Чистая случайность приводит торговца наркотиками Кинга Джеймса и его боевиков на фабрику, чтобы казнить убийцу одного из своих курьеров.

Режиссер: Уолтер Хилл
Актеры: Билл Пэкстон, Айс-Ти, Уильям Сэдлер, Айс Кьюб, Арт Эванс, Де'Воро Уайт, Брюс Э. Янг

Продолжительность: 01:40:57
Перевод: Двухголосый закадровый (2 дорожки), Авторский (одноголосый А.Гаврилов)


Дата мировой премьеры: 25 декабря 1992

Видеокодек: Xvid
Битрейт видео: ~1643 Кбит/сек
Размер кадра: 720 х 400
Качество видео: HDTVRip
Audio 1: AC3 2.0, 48 КHz, 192 Kbps - Двухголосый, закадровый перевод ( Лицензия )
Audio 2: AC3 2.0, 48 КHz, 192 Kbps - Двухголосый, закадровый перевод ( ОРТ )
Audio 3: МР3 2.0, 48 КHz, 128 Kbps - Авторский (одноголосый А.Гаврилов)
Формат : AVI
Формат/Информация : Audio Video Interleave
Размер файла : 1,53 Гбайт
Продолжительность : 1 ч. 40 м.
Общий поток : 2172 Кбит/сек
Название фильма : Narushenie territorii.1992.XviD.DVDRip.(HDTVRip).NovaLan.avi
Режиссёр : NovaLan_alek7120
Программа кодирования : VirtualDubMod 1.5.10.2 (build 2542/release)
Библиотека кодирования : VirtualDubMod build 2542/release

Видео
Идентификатор : 0
Формат : MPEG-4 Visual
Профиль формата : Advanced Simple@L5
Параметр BVOP формата : 1
Параметр QPel формата : Нет
Параметр GMC формата : Без точки перехода
Параметр матрицы формата : Default (H.263)
Идентификатор кодека : XVID
Идентификатор кодека/Подсказка : XviD
Продолжительность : 1 ч. 40 м.
Битрейт : 1643 Кбит/сек
Ширина : 720 пикселей
Высота : 400 пикселей
Соотношение сторон : 16:9
Частота кадров : 23,976 кадра/сек
Цветовое пространство : YUV
Субдискретизация насыщенности : 4:2:0
Битовая глубина : 8 бит
Тип развёртки : Прогрессивная
Метод сжатия : С потерями
Бит/(Пиксели*Кадры) : 0.238
Размер потока : 1,16 Гбайт (76%)
Библиотека кодирования : XviD 1.2.0.dev47 (UTC 2006-11-01)

Аудио #1
Идентификатор : 1
Формат : AC-3
Формат/Информация : Audio Coding 3
Расширение режима : CM (complete main)
Идентификатор кодека : 2000
Продолжительность : 1 ч. 40 м.
Вид битрейта : Постоянный
Битрейт : 192 Кбит/сек
Каналы : 2 канала
Расположение каналов : Front: L R
Частота : 48,0 КГц
Битовая глубина : 16 бит
Метод сжатия : С потерями
Размер потока : 139 Мбайт (9%)
Выравнивание : Разделение по промежуткам
Продолжительность промежутка : 42 мс. (1,00 видеокадр)
Время предзагрузки промежутка : 500 мс.

Аудио #2
Идентификатор : 2
Формат : AC-3
Формат/Информация : Audio Coding 3
Расширение режима : CM (complete main)
Идентификатор кодека : 2000
Продолжительность : 1 ч. 40 м.
Вид битрейта : Постоянный
Битрейт : 192 Кбит/сек
Каналы : 2 канала
Расположение каналов : Front: L R
Частота : 48,0 КГц
Битовая глубина : 16 бит
Метод сжатия : С потерями
Размер потока : 139 Мбайт (9%)
Выравнивание : Разделение по промежуткам
Продолжительность промежутка : 42 мс. (1,00 видеокадр)
Время предзагрузки промежутка : 500 мс.

Аудио #3
Идентификатор : 3
Формат : MPEG Audio
Версия формата : Version 1
Профиль формата : Layer 3
Режим : Joint stereo
Расширение режима : MS Stereo
Идентификатор кодека : 55
Идентификатор кодека/Подсказка : MP3
Продолжительность : 1 ч. 40 м.
Вид битрейта : Постоянный
Битрейт : 128 Кбит/сек
Каналы : 2 канала
Частота : 48,0 КГц
Метод сжатия : С потерями
Задержка видео : 288 мс.
Размер потока : 91,6 Мбайт (6%)
Выравнивание : Соединение по промежуткам
Продолжительность промежутка : 42 мс. (1,01 видеокадр)
Время предзагрузки промежутка : 504 мс.


Скриншоты:
загрузка...
Правила, инструкции, FAQ!!!
Торрент  Добавлен [15 мар 2013, 11:49] Скачать торрент
Скачать торрент
[ Размер 16.21 КБ / Просмотров 27 ]

Статус  
 
Размер  1.53 ГБ
Приватный: Нет (DHT включён)
.torrent скачан  4
Как залить торрент? | Как скачать Torrent? | Как смотреть и слушать онлайн?  


     Отправить личное сообщение
   
Страница 1 из 1
Показать сообщения за:  Поле сортировки  
Начать новую тему Ответить на тему

   Похожие торренты   Автор   Ответы   Просмотры   Последнее сообщение 
В этой теме нет новых непрочитанных сообщений. Скачать торрент Проверен (NWOBHM) Trespass - One Of These Days: The Trespass Anthology (2 CD) - 2004, FLAC (image+.cue), lossless

в форуме Heavy, Power, Progressive (Metal), Размер: 975.75 МБ, Здоровье: ???%

Anonymous

0
0|1

2
0

11 окт 2016, 23:18

Anonymous Перейти к последнему сообщению

В этой теме нет новых непрочитанных сообщений. Скачать торрент Проверен (Hard Rock/Heavy) Trespass - Trespass - 2015, MP3, 320 kbps

в форуме Classic Rock & Hard Rock, Размер: 121.77 МБ, Здоровье: 0%

Anonymous

0
0|0

1
0

13 ноя 2016, 14:50

Anonymous Перейти к последнему сообщению

В этой теме нет новых непрочитанных сообщений. Скачать торрент В осаде 2: Темная территория / Захват 2: Темная территория / Under Siege 2: Dark Territory (1995) BDRip

в форуме Боевики, Размер: 2.58 ГБ, Здоровье: 0%

Anonymous

0
0|0

51
0

30 дек 2013, 12:38

Anonymous Перейти к последнему сообщению

В этой теме нет новых непрочитанных сообщений. Скачать торрент Проверен Наутилус Помпилиус (Nautilus Pompilius) - Чужая земля (1992) [WavPack 2.0 24/192|image + .cue (Vinyl-Rip)]<Rock>

в форуме Vinyl-Rip и Hand-Made, Размер: 1.66 ГБ, Здоровье: 100%

Гость

0
35|1

125
5

08 фев 2015, 00:33

Гость Перейти к последнему сообщению

В этой теме нет новых непрочитанных сообщений. Скачать торрент Проверен (Rock) Территория 22 RUS - Территория 22 RUS (3 альбома - 2005-2011) - 2005-2011, MP3, 192-320 kbps

в форуме Русский Рок, Размер: 198.41 МБ, Здоровье: 0%

Anonymous

0
0|0

0
0

21 авг 2016, 14:15

Anonymous Перейти к последнему сообщению



Сейчас этот форум просматривают: нет зарегистрированных пользователей и гости: 1


Вы не можете начинать темы
Вы не можете отвечать на сообщения
Вы не можете редактировать свои сообщения
Вы не можете удалять свои сообщения
Вы не можете добавлять вложения

Перейти:  

!ВНИМАНИЕ!
 Ресурс не предоставляет электронные версии произведений, а занимается лишь коллекционированием и каталогизацией ссылок, присылаемых и публикуемых на форуме нашими читателями. Если вы являетесь правообладателем какого-либо представленного материала и не желаете чтобы ссылка на него находилась в нашем каталоге, свяжитесь с нами и мы незамедлительно удалим её. Файлы для обмена на трекере предоставлены пользователями сайта, и администрация не несёт ответственности за их содержание. Просьба не заливать файлы, защищенные авторскими правами, а также файлы нелегального содержания!