На всех торрентах на трекере установлена скидка на скачивание в размере 100 процентов(а).
 Возможность скачивания торрента НЕ зависит от ограничений при низком ратио, низком аплоаде, требуемом ратио или требуемом аплоаде.


Начать новую тему Ответить на тему
Статистика раздачи
Размер: 1.46 ГБ | Добавлен: 25 сен 2014, 11:37 | Скачали: 0
Сидеров: 0  [0 байт/сек]    Личеров: 0  [0 байт/сек]
Пред. тема | След. тема 

Автор
Сообщение

СообщениеДобавлено: 25 сен 2014, 11:37 

Год выпуска: 2002
Производство: США, Аруба, Canyon Productions, City Heat Productions, DEJ Productions
Жанр: Боевик, Приключения, Криминал
Описание фильма:
Отсидев положенный срок, на свободу выходит знаменитый вор Томас Тэйлор, которому нужно размяться и подзаработать после вынужденного отдыха. Вместе со своими надежными напарниками он грабит букмекерскую контору, но вскоре радость сменяется досадой - деньги меченые, а на пороге уже стоит предприимчивый агент ФБР Корнэлл, шантажом заставляющий бесстрашную команду ограбить для него инкассаторский фургон. Тэйлор соглашается провернуть эту рискованную операцию и разрабатывает гениальный план, который не может сорваться, ведь на кону стоит не только его свобода, но и жизнь его дочки, ставшей заложницей жестокого Корнэлла.

Режиссер: Предраг Антониевич
Актеры: Дэрил Ханна, Вэл Килмер, Кристиан Слейтер, Балтазар Гетти, Холлистон Коулман, Питер Вудворд, Сара Даунинг, Винсент Лареска, Верн Тройер
Перевод: Многоголосый закадровый
Язык субтитров: отсутствуют


Дата мировой премьеры: 15 февраля 2002
Дата российской премьеры: 30 мая 2002, «Пирамида»
Дата выхода DVD релиза: 30 октября 2008, «Синема Трейд»
Продолжительность: 01:38:23
Качество видео: WEB-DLRip

Видео: MPEG4, XviD, 720x400 (16:9), 24.000 fps, 1 737 Kbps (0.251 bit/pixel)
Аудио: AC-3, 48.0 KHz, 6 ch, 384 Kbps, CBR
Формат : AVI
Формат/Информация : Audio Video Interleave
Размер файла : 1,46 Гбайт
Продолжительность : 1 ч. 38 м.
Общий поток : 2131 Кбит/сек
Программа кодирования : VirtualDubModRus 1.5.10.2 (build 2542/release)
Библиотека кодирования : VirtualDubMod build 2542/release

Видео
Идентификатор : 0
Формат : MPEG-4 Visual
Профиль формата : Advanced Simple@L5
Параметр BVOP формата : 1
Параметр QPel формата : Нет
Параметр GMC формата : Без точки перехода
Параметр матрицы формата : Default (MPEG)
Идентификатор кодека : XVID
Идентификатор кодека/Подсказка : XviD
Продолжительность : 1 ч. 38 м.
Битрейт : 1737 Кбит/сек
Ширина : 720 пикселей
Высота : 400 пикселей
Соотношение сторон : 16:9
Частота кадров : 24,000 кадра/сек
Цветовое пространство : YUV
Субдискретизация насыщенности : 4:2:0
Битовая глубина : 8 бит
Тип развёртки : Прогрессивная
Метод сжатия : С потерями
Бит/(Пиксели*Кадры) : 0.251
Размер потока : 1,19 Гбайт (82%)
Библиотека кодирования : XviD 64

Аудио
Идентификатор : 1
Формат : AC-3
Формат/Информация : Audio Coding 3
Расширение режима : CM (complete main)
Параметр Endianness формата : Big
Идентификатор кодека : 2000
Продолжительность : 1 ч. 38 м.
Вид битрейта : Постоянный
Битрейт : 384 Кбит/сек
Каналы : 6 каналов
Расположение каналов : Front: L C R, Side: L R, LFE
Частота : 48,0 КГц
Битовая глубина : 16 бит
Метод сжатия : С потерями
Размер потока : 270 Мбайт (18%)
Выравнивание : Разделение по промежуткам
Продолжительность промежутка : 42 мс. (1,00 видеокадр)
Время предзагрузки промежутка : 500 мс.
Скриншоты:
загрузка...
Правила, инструкции, FAQ!!!
Торрент  Добавлен [25 сен 2014, 11:37] Скачать торрент
Скачать торрент
[ Размер 15.41 КБ / Просмотров 15 ]

Статус
Проверен 
 
Размер  1.46 ГБ
Приватный: Нет (DHT включён)
.torrent скачан  0
Как залить торрент? | Как скачать Torrent? | Как смотреть и слушать онлайн?  


     Отправить личное сообщение
   
Страница 1 из 1
Показать сообщения за:  Поле сортировки  
Начать новую тему Ответить на тему

   Похожие торренты   Автор   Ответы   Просмотры   Последнее сообщение 
В этой теме нет новых непрочитанных сообщений. Скачать торрент Проверен Тяжелые деньги / Hard Cash (2002) WEB-DL 720p

в форуме 720p | 1080p, Размер: 3.4 ГБ, Здоровье: 100%

Гость

0
125|68

53
160

13 апр 2015, 18:59

Гость Перейти к последнему сообщению

В этой теме нет новых непрочитанных сообщений. Скачать торрент Шальные деньги: Стокгольмский нуар / Snabba cash II / Easy Money II (2012) BDRip-AVC от HELLYWOOD | P

в форуме Триллеры, Размер: 2.19 ГБ, Здоровье: 0%

Anonymous

0
0|0

25
0

17 фев 2014, 07:35

Anonymous Перейти к последнему сообщению

В этой теме нет новых непрочитанных сообщений. Скачать торрент Шальные деньги / Snabba Cash (2010) BDRip

в форуме Триллеры, Размер: 1.45 ГБ, Здоровье: 0%

Anonymous

0
0|0

24
1

17 фев 2014, 07:32

Anonymous Перейти к последнему сообщению

В этой теме нет новых непрочитанных сообщений. Скачать торрент Шальные деньги: Роскошная жизнь / Snabba cash - Livet deluxe (2013) HDRip | L1

в форуме Триллеры, Размер: 1.45 ГБ, Здоровье: 0%

Anonymous

0
0|0

26
0

17 фев 2014, 07:29

Anonymous Перейти к последнему сообщению

В этой теме нет новых непрочитанных сообщений. Скачать торрент Проверен Бесплатные деньги / Money for Nothing (1993) HDRip

в форуме Комедии, Размер: 1.46 ГБ, Здоровье: 0%

Anonymous

0
0|0

27
0

31 окт 2014, 23:12

Anonymous Перейти к последнему сообщению



Сейчас этот форум просматривают: нет зарегистрированных пользователей и гости: 1


Вы не можете начинать темы
Вы не можете отвечать на сообщения
Вы не можете редактировать свои сообщения
Вы не можете удалять свои сообщения
Вы не можете добавлять вложения

Перейти:  

!ВНИМАНИЕ!
 Ресурс не предоставляет электронные версии произведений, а занимается лишь коллекционированием и каталогизацией ссылок, присылаемых и публикуемых на форуме нашими читателями. Если вы являетесь правообладателем какого-либо представленного материала и не желаете чтобы ссылка на него находилась в нашем каталоге, свяжитесь с нами и мы незамедлительно удалим её. Файлы для обмена на трекере предоставлены пользователями сайта, и администрация не несёт ответственности за их содержание. Просьба не заливать файлы, защищенные авторскими правами, а также файлы нелегального содержания!