На всех торрентах на трекере установлена скидка на скачивание в размере 100 процентов(а).
 Возможность скачивания торрента НЕ зависит от ограничений при низком ратио, низком аплоаде, требуемом ратио или требуемом аплоаде.


Начать новую тему Ответить на тему
Статистика раздачи
Размер: 4.5 ГБ | Добавлен: 23 сен 2014, 19:39 | Скачали: 103
Сидеров: 19  [0 байт/сек]    Личеров: 2  [0 байт/сек]
Пред. тема | След. тема 

Автор
Сообщение

СообщениеДобавлено: 23 сен 2014, 19:39 

Название: Пароль "Рыба-меч"
Оригинальное название: Swordfish
Год выхода: 2001
Жанр: Боевик, триллер, криминал
Режиссер: Доминик Сена

В ролях: Джон Траволта, Хью Джекман, Холли Берри, Дон Чидл, Сэм Шепард, Винни Джонс, Дреа де Маттео, Рудольф Мартин, Зэк Гренье, Камрин Граймс, Анджело Паган, Чик Дэниел, Кирк Б.Р. Уоллер, Кармен Ардженциано, Тим ДиКей, Лаура Лэйн, Тейт Рупперт, Крэйг Браун, Уильям Мапотер, Илья Волох, Шоун Вудс, Лео Ли, Марина Блэк, Керри Клеттер, Райан Вулфф, Энн Траволта, Маргарет Траволта, Дэна Хи

О фильме: Один из самых опасных шпионов в мире харизматичный Гэбриэл Шир, работавший когда-то на ЦРУ, а ныне - гениальный преступник, задумывает украсть 9 миллиардов долларов из нелегальных правительственных фондов. Для этого ему нужна помощь суперхакера, способного взломать систему безопасности любой компьютерной сети, Стенли Джобсон, который недавно отсидел срок за взлом ФБР. Гэбриэл и его очаровательная партнёрша Джинжер заманивают Стэнли в своё дерзкое предприятие, обещая хакеру то, от чего он не может отказаться. Однако, взявшись за реализацию этой сложной и рискованной операции, Стэнли вдруг понимает, что он лишь пешка в большой игре...



Страна: США, Австралия
Студия: Jonathan Krane Group, NPV Entertainment, Silver Pictures, Warner Bros. Pictures Co.
Продолжительность: 01:39:15
Перевод: Дублированный, профессиональный многоголосый, авторский одноголосый (Гаврилов), (Визгунов), (Завгородний)


Кодек: MPEG-4 AVC
Качество: BDRip-AVC
Видео: 2300 Кбит/с, 1024x426, 23.976 кадр/с
Звук:
Аудио #1: Русский (AC3, 6 ch, 448 Кбит/с) / Дублированный
Аудио #2: Русский (AC3, 2 ch, 224 Кбит/с) / Профессиональный многоголосый (ОРТ)
Аудио #3: Русский (AC3, 6 ch, 448 Кбит/с) / Профессиональный многоголосый (Киномания)
Аудио #4: Русский (AC3, 6 ch, 448 Кбит/с) / Профессиональный многоголосый (Карусель 1)
Аудио #5: Русский (AC3, 6 ch, 448 Кбит/с) / Профессиональный многоголосый (Карусель 2)
Аудио #6: Русский (AC3, 6 ch, 448 Кбит/с) / Авторский одноголосый (Гаврилов)
Аудио #7: Русский (AC3, 6 ch, 448 Кбит/с) / Авторский одноголосый (Визгунов)
Аудио #8: Русский (AC3, 6 ch, 384 Кбит/с) / Авторский одноголосый (Завгородний)
Аудио #9: Украинский (AC3, 6 ch, 448 Кбит/с) / Дублированный
Аудио #10: Английский (AC3, 6 ch, 448 Кбит/с)
Субтитры: Русские, английские

Семпл

Общее
Уникальный идентификатор : 200798221156339645036463296476130859007 (0x971054A8216B593F85D16F2D03A857FF)
Полное имя : D:Мои РипыParol.Ryba-mech.2001.x264.BDRip.AVC.MediaClub.mkv
Формат : Matroska
Версия формата : Version 4 / Version 2
Размер файла : 4,50 Гбайт
Продолжительность : 1 ч. 39 м.
Общий поток : 6495 Кбит/сек
Название фильма : = MediaClub = rip by krakatuq
Дата кодирования : UTC 2014-09-23 13:02:34
Программа кодирования : mkvmerge v6.6.0 ('The Edge Of The In Between') built on Dec 1 2013 17:55:00
Библиотека кодирования : libebml v1.3.0 + libmatroska v1.4.1

Видео
Идентификатор : 1
Формат : AVC
Формат/Информация : Advanced Video Codec
Профиль формата : High@L4.1
Параметр CABAC формата : Да
Параметр ReFrames формата : 9 кадров
Идентификатор кодека : V_MPEG4/ISO/AVC
Продолжительность : 1 ч. 39 м.
Битрейт : 2174 Кбит/сек
Номинальный битрейт : 2300 Кбит/сек
Ширина : 1024 пикселя
Высота : 426 пикселей
Соотношение сторон : 2,40:1
Режим частоты кадров : Постоянный
Частота кадров : 23,976 кадра/сек
Цветовое пространство : YUV
Субдискретизация насыщенности : 4:2:0
Битовая глубина : 8 бит
Тип развёртки : Прогрессивная
Бит/(Пиксели*Кадры) : 0.208
Размер потока : 1,51 Гбайт (33%)
Заголовок : Parol.Ryba-mech.2001.x264.BDRip.AVC.MediaClub
Библиотека кодирования : x264 core 142 r2409+42 04be48a tMod [8-bit@4:2:0 X86]
Настройки программы : cabac=1 / ref=9 / deblock=1:-2:-2 / analyse=0x3:0x133 / me=umh / subme=11 / psy=1 / fade_compensate=0.00 / psy_rd=1.00:0.15 / mixed_ref=1 / me_range=32 / chroma_me=1 / trellis=2 / 8x8dct=1 / cqm=0 / deadzone=21,11 / fast_pskip=0 / chroma_qp_offset=-3 / threads=3 / lookahead_threads=1 / sliced_threads=0 / nr=0 / decimate=0 / interlaced=0 / bluray_compat=0 / constrained_intra=0 / fgo=0 / bframes=8 / b_pyramid=2 / b_adapt=2 / b_bias=0 / direct=3 / weightb=1 / open_gop=0 / weightp=2 / keyint=240 / keyint_min=23 / scenecut=40 / intra_refresh=0 / rc=2pass / mbtree=0 / bitrate=2300 / ratetol=1.0 / qcomp=0.60 / qpmin=0:0:0 / qpmax=69:69:69 / qpstep=4 / cplxblur=20.0 / qblur=0.5 / ip_ratio=1.40 / pb_ratio=1.30 / aq=1:1.00 / aq-sensitivity=10.00 / aq-factor=1.00:1.00:1.00 / aq2=0 / aq3=0
Язык : English
Default : Да
Forced : Нет

Аудио #1
Идентификатор : 2
Формат : AC-3
Формат/Информация : Audio Coding 3
Расширение режима : CM (complete main)
Параметр Endianness формата : Big
Идентификатор кодека : A_AC3
Продолжительность : 1 ч. 39 м.
Вид битрейта : Постоянный
Битрейт : 448 Кбит/сек
Каналы : 6 каналов
Расположение каналов : Front: L C R, Side: L R, LFE
Частота : 48,0 КГц
Битовая глубина : 16 бит
Метод сжатия : С потерями
Размер потока : 318 Мбайт (7%)
Заголовок : TRACK_01_DUB_RUS
Язык : Russian
Default : Да
Forced : Да

Аудио #2
Идентификатор : 3
Формат : AC-3
Формат/Информация : Audio Coding 3
Расширение режима : CM (complete main)
Параметр Endianness формата : Big
Идентификатор кодека : A_AC3
Продолжительность : 1 ч. 39 м.
Вид битрейта : Постоянный
Битрейт : 224 Кбит/сек
Каналы : 2 канала
Расположение каналов : Front: L R
Частота : 48,0 КГц
Битовая глубина : 16 бит
Метод сжатия : С потерями
Размер потока : 159 Мбайт (3%)
Заголовок : TRACK_02_MVO_RUS_ОРТ
Язык : Russian
Default : Нет
Forced : Нет

Аудио #3
Идентификатор : 4
Формат : AC-3
Формат/Информация : Audio Coding 3
Расширение режима : CM (complete main)
Параметр Endianness формата : Big
Идентификатор кодека : A_AC3
Продолжительность : 1 ч. 39 м.
Вид битрейта : Постоянный
Битрейт : 448 Кбит/сек
Каналы : 6 каналов
Расположение каналов : Front: L C R, Side: L R, LFE
Частота : 48,0 КГц
Битовая глубина : 16 бит
Метод сжатия : С потерями
Размер потока : 318 Мбайт (7%)
Заголовок : TRACK_03_MVO_RUS_КИНОМАНИЯ
Язык : Russian
Default : Нет
Forced : Нет

Аудио #4
Идентификатор : 5
Формат : AC-3
Формат/Информация : Audio Coding 3
Расширение режима : CM (complete main)
Параметр Endianness формата : Big
Идентификатор кодека : A_AC3
Продолжительность : 1 ч. 39 м.
Вид битрейта : Постоянный
Битрейт : 448 Кбит/сек
Каналы : 6 каналов
Расположение каналов : Front: L C R, Side: L R, LFE
Частота : 48,0 КГц
Битовая глубина : 16 бит
Метод сжатия : С потерями
Размер потока : 318 Мбайт (7%)
Заголовок : TRACK_04_MVO_RUS_КАРУСЕЛЬ 1
Язык : Russian
Default : Нет
Forced : Нет

Аудио #5
Идентификатор : 6
Формат : AC-3
Формат/Информация : Audio Coding 3
Расширение режима : CM (complete main)
Параметр Endianness формата : Big
Идентификатор кодека : A_AC3
Продолжительность : 1 ч. 39 м.
Вид битрейта : Постоянный
Битрейт : 448 Кбит/сек
Каналы : 6 каналов
Расположение каналов : Front: L C R, Side: L R, LFE
Частота : 48,0 КГц
Битовая глубина : 16 бит
Метод сжатия : С потерями
Размер потока : 318 Мбайт (7%)
Заголовок : TRACK_05_MVO_RUS_КАРУСЕЛЬ 2
Язык : Russian
Default : Нет
Forced : Нет

Аудио #6
Идентификатор : 7
Формат : AC-3
Формат/Информация : Audio Coding 3
Расширение режима : CM (complete main)
Параметр Endianness формата : Big
Идентификатор кодека : A_AC3
Продолжительность : 1 ч. 39 м.
Вид битрейта : Постоянный
Битрейт : 448 Кбит/сек
Каналы : 6 каналов
Расположение каналов : Front: L C R, Side: L R, LFE
Частота : 48,0 КГц
Битовая глубина : 16 бит
Метод сжатия : С потерями
Размер потока : 318 Мбайт (7%)
Заголовок : TRACK_06_AVO_RUS_GAVRILOV
Язык : Russian
Default : Нет
Forced : Нет

Аудио #7
Идентификатор : 8
Формат : AC-3
Формат/Информация : Audio Coding 3
Расширение режима : CM (complete main)
Параметр Endianness формата : Big
Идентификатор кодека : A_AC3
Продолжительность : 1 ч. 39 м.
Вид битрейта : Постоянный
Битрейт : 448 Кбит/сек
Каналы : 6 каналов
Расположение каналов : Front: L C R, Side: L R, LFE
Частота : 48,0 КГц
Битовая глубина : 16 бит
Метод сжатия : С потерями
Размер потока : 318 Мбайт (7%)
Заголовок : TRACK_07_AVO_RUS_VIZGUNOV
Язык : Russian
Default : Нет
Forced : Нет

Аудио #8
Идентификатор : 9
Формат : AC-3
Формат/Информация : Audio Coding 3
Расширение режима : CM (complete main)
Параметр Endianness формата : Big
Идентификатор кодека : A_AC3
Продолжительность : 1 ч. 39 м.
Вид битрейта : Постоянный
Битрейт : 384 Кбит/сек
Каналы : 6 каналов
Расположение каналов : Front: L C R, Side: L R, LFE
Частота : 48,0 КГц
Битовая глубина : 16 бит
Метод сжатия : С потерями
Размер потока : 273 Мбайт (6%)
Заголовок : TRACK_08_AVO_RUS_ZAVGORODNIJ
Язык : Russian
Default : Нет
Forced : Нет

Аудио #9
Идентификатор : 10
Формат : AC-3
Формат/Информация : Audio Coding 3
Расширение режима : CM (complete main)
Параметр Endianness формата : Big
Идентификатор кодека : A_AC3
Продолжительность : 1 ч. 39 м.
Вид битрейта : Постоянный
Битрейт : 448 Кбит/сек
Каналы : 6 каналов
Расположение каналов : Front: L C R, Side: L R, LFE
Частота : 48,0 КГц
Битовая глубина : 16 бит
Метод сжатия : С потерями
Размер потока : 318 Мбайт (7%)
Заголовок : TRACK_09_DUB_UKR
Язык : Ukrainian
Default : Нет
Forced : Нет

Аудио #10
Идентификатор : 11
Формат : AC-3
Формат/Информация : Audio Coding 3
Расширение режима : CM (complete main)
Параметр Endianness формата : Big
Идентификатор кодека : A_AC3
Продолжительность : 1 ч. 39 м.
Вид битрейта : Постоянный
Битрейт : 448 Кбит/сек
Каналы : 6 каналов
Расположение каналов : Front: L C R, Side: L R, LFE
Частота : 48,0 КГц
Битовая глубина : 16 бит
Метод сжатия : С потерями
Размер потока : 318 Мбайт (7%)
Заголовок : TRACK_10_ORIGINAL_ENG
Язык : English
Default : Нет
Forced : Нет

Текст #1
Идентификатор : 12
Формат : UTF-8
Идентификатор кодека : S_TEXT/UTF8
Идентификатор кодека/Информация : UTF-8 Plain Text
Заголовок : TEXT_01_SUB_RUS
Язык : Russian
Default : Нет
Forced : Нет

Текст #2
Идентификатор : 13
Формат : UTF-8
Идентификатор кодека : S_TEXT/UTF8
Идентификатор кодека/Информация : UTF-8 Plain Text
Заголовок : TEXT_02_SUB_ENG
Язык : English
Default : Нет
Forced : Нет

Меню
00:00:00.000 : en:Cinematic Theory
00:04:03.743 : en:Explosively Wrong Move
00:08:12.033 : en:Interception at Lax
00:11:47.456 : en:Ginger Visits
00:15:07.489 : en:Parental Devotion
00:18:47.042 : en:Axl in the Box
00:21:58.275 : en:Gabriel's World
00:24:14.786 : en:Through the Looking...
00:25:50.090 : en:Nearly Gone in 60...
00:30:36.000 : en:Stan's Only Shot
00:34:01.289 : en:A Deal
00:37:44.262 : en:Holly's Ride
00:42:11.654 : en:Way Over His Head
00:46:48.305 : en:Ginger Off Guard
00:49:12.824 : en:Operation Swordfish
00:51:52.275 : en:Worm and a Rottweiler
00:55:27.324 : en:Hackstasy
00:58:32.509 : en:Hitting the Hit Squad
01:03:18.544 : en:Executed for Treason
01:05:53.616 : en:War Costs
01:09:19.989 : en:Bank Crash
01:11:11.433 : en:Daughter in Danger
01:15:24.895 : en:Ginger Snapped
01:20:09.095 : en:Misdirection
01:23:15.782 : en:Bus That Could Fly
01:26:55.960 : en:Stan's Ending
01:29:01.336 : en:Flashback
01:30:59.454 : en:Travel Partners
01:33:29.520 : en:End Credits

x264 log
x264 [info]: frame I:1322 Avg QP:15.06 size: 71283
x264 [info]: frame P:37228 Avg QP:18.34 size: 23136
x264 [info]: frame B:104243 Avg QP:20.47 size: 7256


Релиз от:
Автор рипа:
загрузка...
Правила, инструкции, FAQ!!!
Торрент  Добавлен [23 сен 2014, 19:39] Скачать торрент
Скачать торрент
[ Размер 23.08 КБ / Просмотров 4 ]

Статус
Проверен 
 
Размер  4.5 ГБ
Приватный: Нет (DHT включён)
.torrent скачан  103
Как залить торрент? | Как скачать Torrent? | Как смотреть и слушать онлайн?  


     Отправить личное сообщение
   
Страница 1 из 1
Показать сообщения за:  Поле сортировки  
Начать новую тему Ответить на тему

   Похожие торренты   Автор   Ответы   Просмотры   Последнее сообщение 
В этой теме нет новых непрочитанных сообщений. Скачать торрент Пароль «Рыба-меч» / Swordfish (2001) BDRip

в форуме Боевики, Размер: 1.46 ГБ, Здоровье: 100%

Anonymous

0
45|10

22
302

12 янв 2014, 17:34

Anonymous Перейти к последнему сообщению

В этой теме нет новых непрочитанных сообщений. Скачать торрент Проверен Дохлая рыба / Dead Fish (2005) BDRip 1080p | P2, A

в форуме 720p | 1080p, Размер: 7.2 ГБ, Здоровье: 100%

Anonymous

0
7|0

26
35

10 июн 2014, 15:09

Anonymous Перейти к последнему сообщению

В этой теме нет новых непрочитанных сообщений. Скачать торрент Проверен Семёнов Юлиан - Пароль не нужен [Броцкая Леонтина, 2011, 96 kbps, MP3]

в форуме Детектив и Боевики, Размер: 583.36 МБ, Здоровье: 0%

Anonymous

0
0|0

0
0

20 ноя 2016, 12:53

Anonymous Перейти к последнему сообщению

В этой теме нет новых непрочитанных сообщений. Скачать торрент Проверен Левицкий Андрей , Бобл Алексей - серия ТЕХНОТЬМА: ПАРОЛЬ "ВЕЧНОСТЬ" [Дмитрий Хазанович (Дим Димыч) (ЛИ), 2012 г., 192 kbps, MP3]

в форуме Российская фантастика, фэнтези, мистика, ужасы, фанфики, Размер: 933.6 МБ, Здоровье: 0%

Anonymous

0
0|0

3
0

10 сен 2016, 19:31

Anonymous Перейти к последнему сообщению

В этой теме нет новых непрочитанных сообщений. Скачать торрент Проверен Рыба. Вяление. Копчение [2005, PDF, RUS]

в форуме Кулинария, Размер: 12.76 МБ, Здоровье: 0%

Anonymous

0
0|0

1
0

19 окт 2016, 21:20

Anonymous Перейти к последнему сообщению



Сейчас этот форум просматривают: нет зарегистрированных пользователей и гости: 1


Вы не можете начинать темы
Вы не можете отвечать на сообщения
Вы не можете редактировать свои сообщения
Вы не можете удалять свои сообщения
Вы не можете добавлять вложения

Перейти:  

!ВНИМАНИЕ!
 Ресурс не предоставляет электронные версии произведений, а занимается лишь коллекционированием и каталогизацией ссылок, присылаемых и публикуемых на форуме нашими читателями. Если вы являетесь правообладателем какого-либо представленного материала и не желаете чтобы ссылка на него находилась в нашем каталоге, свяжитесь с нами и мы незамедлительно удалим её. Файлы для обмена на трекере предоставлены пользователями сайта, и администрация не несёт ответственности за их содержание. Просьба не заливать файлы, защищенные авторскими правами, а также файлы нелегального содержания!