На всех торрентах на трекере установлена скидка на скачивание в размере 100 процентов(а).
 Возможность скачивания торрента НЕ зависит от ограничений при низком ратио, низком аплоаде, требуемом ратио или требуемом аплоаде.


Начать новую тему Ответить на тему
Статистика раздачи
Размер: 1.37 ГБ | Добавлен: 21 сен 2014, 22:38 | Скачали: 0
Сидеров: 0  [0 байт/сек]    Личеров: 2  [0 байт/сек]
Пред. тема | След. тема 

Автор
Сообщение

СообщениеДобавлено: 21 сен 2014, 22:38 

Год выпуска: 2008
Производство: США, RHI Entertainment Inc.
Жанр: Боевик

Режиссер: Дэвид Джексон
Актеры: Макс Мартини, Ник Чинланд, Джейн Парк Смит, Макс Перлих, Валери Крус, Эрин Коттрелл, Джейден Ланд, Кико Эллсворт, Дэнни Арройо

Описание фильма:
Вернувшись из армии, сержант Джек Кэмпбелл обнаруживает, что его родной город превратился в центр коррупции и нелегального бизнеса, контролируемый жестоким воротилой. Главный источник его дохода — подпольный клуб по боям без правил, уже отправивший на больничную койку младшего брата Джека. Вооружившись кулаками, Кэмпбелл отправляется мстить…

Перевод: Профессиональный многоголосый
Субтитры: Отсутствуют



Продолжительность: 01:27:30
Качество видео: DVDRip

Видеокодек: XviD
Битрейт видео: ~1783 Кбит/с
Размер кадра: 704x400
Аудиокодек: AC3 6 ch
Битрейт аудио: 448 Кбит/с

Общее
Полное имя : C:\NNM\Уличный воин\Ulichnyj voin 2008 DVDRip.avi
Формат : AVI
Формат/Информация : Audio Video Interleave
Размер файла : 1,37 Гбайт
Продолжительность : 1 ч. 27 м.
Общий поток : 2240 Кбит/сек
Программа кодирования : VirtualDubMod 1.5.10.2 (build 2540/release)
Библиотека кодирования : VirtualDubMod build 2540/release

Видео
Идентификатор : 0
Формат : MPEG-4 Visual
Профиль формата : Advanced Simple@L5
Параметр BVOP формата : 1
Параметр QPel формата : Нет
Параметр GMC формата : Без точки перехода
Параметр матрицы формата : Выборочная
Идентификатор кодека : XVID
Идентификатор кодека/Подсказка : XviD
Продолжительность : 1 ч. 27 м.
Битрейт : 1783 Кбит/сек
Ширина : 704 пикселя
Высота : 400 пикселей
Соотношение сторон : 16:9
Частота кадров : 23,976 кадра/сек
Цветовое пространство : YUV
Субдискретизация насыщенности : 4:2:0
Битовая глубина : 8 бит
Тип развёртки : Прогрессивная
Метод сжатия : С потерями
Бит/(Пиксели*Кадры) : 0.264
Размер потока : 1,09 Гбайт (80%)
Библиотека кодирования : XviD 1.1.2 (UTC 2006-11-01)

Аудио
Идентификатор : 1
Формат : AC-3
Формат/Информация : Audio Coding 3
Расширение режима : CM (complete main)
Идентификатор кодека : 2000
Продолжительность : 1 ч. 27 м.
Вид битрейта : Постоянный
Битрейт : 448 Кбит/сек
Каналы : 6 каналов
Расположение каналов : Front: L C R, Side: L R, LFE
Частота : 48,0 КГц
Битовая глубина : 16 бит
Метод сжатия : С потерями
Размер потока : 280 Мбайт (20%)
Выравнивание : Разделение по промежуткам
Продолжительность промежутка : 42 мс. (1,00 видеокадр)
Время предзагрузки промежутка : 500 мс.
Скриншоты:
[center]

загрузка...
Правила, инструкции, FAQ!!!
Торрент  Добавлен [21 сен 2014, 22:38] Скачать торрент
Скачать торрент
[ Размер 14.39 КБ / Просмотров 15 ]

Статус
Проверен 
 
Размер  1.37 ГБ
Приватный: Нет (DHT включён)
.torrent скачан  0
Как залить торрент? | Как скачать Torrent? | Как смотреть и слушать онлайн?  


     Отправить личное сообщение
   
Страница 1 из 1
Показать сообщения за:  Поле сортировки  
Начать новую тему Ответить на тему

   Похожие торренты   Автор   Ответы   Просмотры   Последнее сообщение 
В этой теме нет новых непрочитанных сообщений. Скачать торрент Мирный воин / Peaceful Warrior (Виктор Сальва / Victor Salva) [2006 г., мелодрама, драма, спорт, DVDRip] Mvo + Original + sub

в форуме Драмы, Мелодрамы, Размер: 2.19 ГБ, Здоровье: 100%

Anonymous

0
51|16

45
18

13 фев 2014, 06:34

Anonymous Перейти к последнему сообщению

В этой теме нет новых непрочитанных сообщений. Скачать торрент Проверен Уличный боец: Кулак убийцы / Street Fighter: Assassin's Fist (2014) BDRip-AVC | А

в форуме Боевики, Размер: 2.78 ГБ, Здоровье: 22%

Anonymous

0
46|205

89
56

06 сен 2014, 21:57

Anonymous Перейти к последнему сообщению

В этой теме нет новых непрочитанных сообщений. Скачать торрент Проверен Уличный боец: Кулак убийцы / Street Fighter: Assassin's Fist (2014) BDRip 1080p | А

в форуме 720p | 1080p, Размер: 12.03 ГБ, Здоровье: 1%

Anonymous

0
2|113

56
1

06 сен 2014, 21:53

Anonymous Перейти к последнему сообщению

В этой теме нет новых непрочитанных сообщений. Скачать торрент Проверен [MP4 640x272] Воин / Warrior (2011) BDRip

в форуме Видео для смартфонов и КПК, Размер: 828.09 МБ, Здоровье: 50%

Anonymous

0
1|2

61
0

25 окт 2014, 23:29

Anonymous Перейти к последнему сообщению

В этой теме нет новых непрочитанных сообщений. Скачать торрент Проверен Воин / Warrior (2011) BDRip | Живов

в форуме Боевики, Размер: 2.17 ГБ, Здоровье: 100%

Гость

0
56|12

226
90

16 ноя 2015, 00:00

Гость Перейти к последнему сообщению



Сейчас этот форум просматривают: нет зарегистрированных пользователей и гости: 1


Вы не можете начинать темы
Вы не можете отвечать на сообщения
Вы не можете редактировать свои сообщения
Вы не можете удалять свои сообщения
Вы не можете добавлять вложения

Перейти:  

!ВНИМАНИЕ!
 Ресурс не предоставляет электронные версии произведений, а занимается лишь коллекционированием и каталогизацией ссылок, присылаемых и публикуемых на форуме нашими читателями. Если вы являетесь правообладателем какого-либо представленного материала и не желаете чтобы ссылка на него находилась в нашем каталоге, свяжитесь с нами и мы незамедлительно удалим её. Файлы для обмена на трекере предоставлены пользователями сайта, и администрация не несёт ответственности за их содержание. Просьба не заливать файлы, защищенные авторскими правами, а также файлы нелегального содержания!