На всех торрентах на трекере установлена скидка на скачивание в размере 100 процентов(а).
 Возможность скачивания торрента НЕ зависит от ограничений при низком ратио, низком аплоаде, требуемом ратио или требуемом аплоаде.


Начать новую тему Ответить на тему
Статистика раздачи
Размер: 1.45 ГБ | Добавлен: 21 сен 2014, 11:56 | Скачали: 212
Сидеров: 27  [0 байт/сек]    Личеров: 2  [0 байт/сек]
Пред. тема | След. тема 

Автор
Сообщение

СообщениеДобавлено: 21 сен 2014, 11:56 

Название: Скалолаз
Оригинальное название: Cliffhanger
Год выхода: 1993
Жанр: боевик, триллер, приключения
Режиссер: Ренни Харлин / Renny Harlin

В ролях: Сильвестр Сталлоне /Sylvester Stallone/, Джон Литгоу /John Lithgow/, Майкл Рукер /Michael Rooker/, Джанин Тернер /Janine Turner/, Рекс Линн /Rex Linn/, Кэролайн Гудолл /Caroline Goodall/, Леон /Leon/, Крэйг Фэйрбрасс /Craig Fairbrass/, Грегори Скотт Камминс /Gregory Scott Cummins/, Дэнис Форест /Denis Forest/, Мишель Джойнер /Michelle Joyner/, Макс Перлих /Max Perlich/

О фильме:
В горах после снежной лавины теряются 5 человек. На их поиски отправляется один из лучших альпинистов и горных проводников — Гейб Уокер. Неожиданно он понимает, что его специально заманили в горы для совершенно другого дела.

Также становится ясно, что Гейб станет нежелательным свидетелем, от которого без раздумья «избавятся». Но свою жизнь он терять так просто не собирается и объявляет безжалостную войну банде вооруженных до зубов боевиков под предводительством международного террориста Эрика Куалена…



Страна: США, Франция, Италия
Студия: Carolco Pictures, Le Studio Canal+, RCS Video, TriStar Pictures
Продолжительность: 01:53:00
Перевод: Профессиональный (Двухголосый, закадровый)


Кодек: XviD / AC3
Качество: BDRip
Видео: XviD, 720x304 (2.35:1), 23.976 fps, 1 386 Kbps (0.264 bit/pixel)
Звук: AC-3, 48.0 KHz, 6 ch, 448 Kbps, CBR

General
Complete name : E:hqf-cliff.avi
Format : AVI
Format/Info : Audio Video Interleave
File size : 1.45 GiB
Duration : 1h 53mn
Overall bit rate : 1 843 Kbps
Writing application : VirtualDubMod 1.5.10.2 (build 2540/release)
Writing library : VirtualDubMod build 2540/release

Video
ID : 0
Format : MPEG-4 Visual
Format profile : Advanced Simple@L5
Format settings, BVOP : 3
Format settings, QPel : No
Format settings, GMC : No warppoints
Format settings, Matrix : Custom
Codec ID : XVID
Codec ID/Hint : XviD
Duration : 1h 53mn
Bit rate : 1 386 Kbps
Width : 720 pixels
Height : 304 pixels
Display aspect ratio : 2.35:1
Frame rate : 23.976 fps
Color space : YUV
Chroma subsampling : 4:2:0
Bit depth : 8 bits
Scan type : Progressive
Compression mode : Lossy
Bits/(Pixel*Frame) : 0.264
Stream size : 1.09 GiB (75%)
Writing library : XviD 1.2.1 (UTC 2008-12-04)

Audio
ID : 1
Format : AC-3
Format/Info : Audio Coding 3
Mode extension : CM (complete main)
Format settings, Endianness : Big
Codec ID : 2000
Duration : 1h 53mn
Bit rate mode : Constant
Bit rate : 448 Kbps
Channel(s) : 6 channels
Channel positions : Front: L C R, Side: L R, LFE
Sampling rate : 48.0 KHz
Bit depth : 16 bits
Compression mode : Lossy
Stream size : 362 MiB (24%)
Alignment : Aligned on interleaves
Interleave, duration : 42 ms (1.00 video frame)
Interleave, preload duration : 512 ms

загрузка...
Правила, инструкции, FAQ!!!
Торрент  Добавлен [21 сен 2014, 11:56] Скачать торрент
Скачать торрент
[ Размер 116.86 КБ / Просмотров 7 ]

Статус
Проверен 
 
Размер  1.45 ГБ
Приватный: Нет (DHT включён)
.torrent скачан  212
Как залить торрент? | Как скачать Torrent? | Как смотреть и слушать онлайн?  


     Отправить личное сообщение
   
Страница 1 из 1
Показать сообщения за:  Поле сортировки  
Начать новую тему Ответить на тему

   Похожие торренты   Автор   Ответы   Просмотры   Последнее сообщение 
В этой теме нет новых непрочитанных сообщений. Скачать торрент Проверен (Neo Progressive) = Cliffhanger = Discography = APE (image+.cue), lossless

в форуме Progressive & Art-Rock, Размер: 1.85 ГБ, Здоровье: 100%

Anonymous

0
2|2

3
1

01 сен 2016, 23:49

Anonymous Перейти к последнему сообщению

В этой теме нет новых непрочитанных сообщений. Скачать торрент Проверен (Neo-Prog / Progressive Rock) [CD] Cliffhanger - Cold Steel 2CD (remastered & expanded) - 2013, FLAC (image+.cue), lossless

в форуме Progressive & Art-Rock, Размер: 951.01 МБ, Здоровье: 0%

Anonymous

0
0|0

2
1

30 авг 2016, 19:49

Anonymous Перейти к последнему сообщению

В этой теме нет новых непрочитанных сообщений. Скачать торрент Проверен Хронос / Cronos (1993) BDRip

в форуме Ужасы, Размер: 1.46 ГБ, Здоровье: 100%

Гость

0
2|1

133
1

21 фев 2015, 18:49

Гость Перейти к последнему сообщению

В этой теме нет новых непрочитанных сообщений. Скачать торрент Проверен Сирены / Sirens (1993) BDRip | P, A

в форуме Комедии, Размер: 1.98 ГБ, Здоровье: 100%

Anonymous

0
7|5

133
57

15 сен 2014, 14:09

Anonymous Перейти к последнему сообщению

В этой теме нет новых непрочитанных сообщений. Скачать торрент Руди / Rudy (1993) BDRip

в форуме Драмы, Мелодрамы, Размер: 2.19 ГБ, Здоровье: 0%

Anonymous

0
0|0

23
1

06 фев 2014, 14:20

Anonymous Перейти к последнему сообщению



Сейчас этот форум просматривают: нет зарегистрированных пользователей и гости: 1


Вы не можете начинать темы
Вы не можете отвечать на сообщения
Вы не можете редактировать свои сообщения
Вы не можете удалять свои сообщения
Вы не можете добавлять вложения

Перейти:  

!ВНИМАНИЕ!
 Ресурс не предоставляет электронные версии произведений, а занимается лишь коллекционированием и каталогизацией ссылок, присылаемых и публикуемых на форуме нашими читателями. Если вы являетесь правообладателем какого-либо представленного материала и не желаете чтобы ссылка на него находилась в нашем каталоге, свяжитесь с нами и мы незамедлительно удалим её. Файлы для обмена на трекере предоставлены пользователями сайта, и администрация не несёт ответственности за их содержание. Просьба не заливать файлы, защищенные авторскими правами, а также файлы нелегального содержания!