На всех торрентах на трекере установлена скидка на скачивание в размере 100 процентов(а).
 Возможность скачивания торрента НЕ зависит от ограничений при низком ратио, низком аплоаде, требуемом ратио или требуемом аплоаде.


Начать новую тему Ответить на тему
Статистика раздачи
Размер: 2.78 ГБ | Добавлен: 06 сен 2014, 21:57 | Скачали: 56
Сидеров: 46  [0 байт/сек]    Личеров: 205  [0 байт/сек]
Пред. тема | След. тема 

Автор
Сообщение

СообщениеДобавлено: 06 сен 2014, 21:57 

Название: Уличный боец: Кулак убийцы
Оригинальное название: Street Fighter - Assassin's Fist
Год выпуска: 2014
Жанр: Боевик, триллер, драма, приключения, боевые искусства
Выпущено: Великобритания, Assassin's Fist Limited, Evropa Films, Lonely Rock Productions, Gloucester Place Films
Режиссер: Джои Анса

В ролях: Марк Киллин, Того Игава, Майк Мо, Джои Анса, Крис Ховард, Харукико Яманоути, Гаку Спэйс, Hyunri, Акира Койеяма, Шоген

О фильме: Фильм рассказывает о периоде становления бойцами Рю и Кена, когда они жили традиционной жизнью воинов в Японии. Парни и не подозревали, что являются последними людьми, познавшими древний боевой стиль, известный как «Ансацукен» (Кулак убийцы)…Оказавшись в Додзё Готетсу, Гокен погружается в воспоминания о собственных тренировках в молодости. Кен и Рю обнаруживают нечто секретное и понимают, что прошлое их учителя скрывает немало тайн. Друзья тренируются, чтобы освоить секретную технику "ХАДО". Но чтобы пробудить эту мощную силу, им придется пройти настоящее испытание - забыть о своей дружбе и стать противниками, сразиться друг с другом...




Качество: BDRip (AVC)
Видео: MPEG-4 AVC, 1825 Кбит/с, 1024x426
Аудио: Русский, английский (AC3, 6 ch, 448 Кбит/с)
Продолжительность: 02:26:20
Перевод: Авторский
Субтитры: Русские, английские

Сохранены оригинальные чаптеры как на Blu-Ray.
Озвучивание: Авторское одноголосое закадровое (А.Дольский)
Перевод русских субтитров (только японская речь) (Enigma)
General
Unique ID : 239492419593293226428838704908181096646 (0xB42C8FEE9F7B04A189A001536CF2C8C6)
Complete name : C:Street.Fighter.Assassins.Fist.2014.A.BDRip.AVC.ExKinoRay.mkv
Format : Matroska
Format version : Version 2
File size : 2.78 GiB
Duration : 2h 26mn
Overall bit rate : 2 723 Kbps
Movie name : Street Fighter - Assassin's Fist 2014 from ExKinoRay
Encoded date : UTC 2014-09-06 15:04:25
Writing application : mkvmerge v4.9.1 ('Ich will') built on Jul 11 2011 23:53:15
Writing library : libebml v1.2.1 + libmatroska v1.1.1

Video
ID : 1
Format : AVC
Format/Info : Advanced Video Codec
Format profile : High@L4.1
Format settings, CABAC : Yes
Format settings, ReFrames : 9 frames
Codec ID : V_MPEG4/ISO/AVC
Duration : 2h 26mn
Bit rate : 1 825 Kbps
Width : 1 024 pixels
Height : 426 pixels
Display aspect ratio : 2.40:1
Frame rate mode : Constant
Frame rate : 25.000 fps
Color space : YUV
Chroma subsampling : 4:2:0
Bit depth : 8 bits
Scan type : Progressive
Bits/(Pixel*Frame) : 0.167
Stream size : 1.81 GiB (65%)
Title : Enigma-Vladislav71
Writing library : x264 core 116 r2044 392e762
Encoding settings : cabac=1 / ref=9 / deblock=1:-2:-2 / analyse=0x3:0x113 / me=umh / subme=9 / psy=1 / psy_rd=1.00:0.20 / mixed_ref=1 / me_range=32 / chroma_me=1 / trellis=2 / 8x8dct=1 / cqm=0 / deadzone=21,11 / fast_pskip=0 / chroma_qp_offset=-3 / threads=12 / sliced_threads=0 / nr=0 / decimate=0 / interlaced=0 / bluray_compat=0 / constrained_intra=0 / bframes=9 / b_pyramid=2 / b_adapt=2 / b_bias=0 / direct=3 / weightb=1 / open_gop=0 / weightp=2 / keyint=250 / keyint_min=25 / scenecut=40 / intra_refresh=0 / rc=2pass / mbtree=0 / bitrate=1825 / ratetol=1.0 / qcomp=0.60 / qpmin=0 / qpmax=69 / qpstep=4 / cplxblur=20.0 / qblur=0.5 / ip_ratio=1.40 / pb_ratio=1.30 / aq=1:1.00
Language : English
Default : Yes
Forced : No

Audio #1
ID : 2
Format : AC-3
Format/Info : Audio Coding 3
Mode extension : CM (complete main)
Format settings, Endianness : Big
Codec ID : A_AC3
Duration : 2h 26mn
Bit rate mode : Constant
Bit rate : 448 Kbps
Channel(s) : 6 channels
Channel positions : Front: L C R, Side: L R, LFE
Sampling rate : 48.0 KHz
Bit depth : 16 bits
Compression mode : Lossy
Stream size : 469 MiB (16%)
Title : AVO (Doljskiy)
Language : Russian
Default : Yes
Forced : No

Audio #2
ID : 3
Format : AC-3
Format/Info : Audio Coding 3
Mode extension : CM (complete main)
Format settings, Endianness : Big
Codec ID : A_AC3
Duration : 2h 26mn
Bit rate mode : Constant
Bit rate : 448 Kbps
Channel(s) : 6 channels
Channel positions : Front: L C R, Side: L R, LFE
Sampling rate : 48.0 KHz
Bit depth : 16 bits
Compression mode : Lossy
Stream size : 469 MiB (16%)
Language : English
Default : No
Forced : No

Text #1
ID : 4
Format : UTF-8
Codec ID : S_TEXT/UTF8
Codec ID/Info : UTF-8 Plain Text
Title : Enigma (Only Japanese speech)
Language : Russian
Default : No
Forced : No

Text #2
ID : 5
Format : UTF-8
Codec ID : S_TEXT/UTF8
Codec ID/Info : UTF-8 Plain Text
Title : Only Japanese speech
Language : English
Default : No
Forced : No

Text #3
ID : 6
Format : UTF-8
Codec ID : S_TEXT/UTF8
Codec ID/Info : UTF-8 Plain Text
Title : Full
Language : English
Default : No
Forced : No

Menu
00:00:00.000 : en:Chapter 01
00:23:10.400 : en:Chapter 02
00:43:56.160 : en:Chapter 03
01:06:18.000 : en:Chapter 04
01:27:56.600 : en:Chapter 05
01:50:15.280 : en:Chapter 06
02:12:29.000 : en:Chapter 07
02:26:19.400 : en:Chapter 08
02:26:20.599 : en:Chapter 09






Релиз от:

Авторы релиза:
загрузка...
Правила, инструкции, FAQ!!!
Торрент  Добавлен [06 сен 2014, 21:57] Скачать торрент
Скачать торрент
[ Размер 14.56 КБ / Просмотров 5 ]

Статус
Проверен 
 
Размер  2.78 ГБ
Приватный: Нет (DHT включён)
.torrent скачан  56
Как залить торрент? | Как скачать Torrent? | Как смотреть и слушать онлайн?  


     Отправить личное сообщение
   
Страница 1 из 1
Показать сообщения за:  Поле сортировки  
Начать новую тему Ответить на тему

   Похожие торренты   Автор   Ответы   Просмотры   Последнее сообщение 
В этой теме нет новых непрочитанных сообщений. Скачать торрент Проверен Уличный боец: Кулак убийцы / Street Fighter: Assassin's Fist (2014) BDRip 1080p | А

в форуме 720p | 1080p, Размер: 12.03 ГБ, Здоровье: 1%

Anonymous

0
2|113

56
1

06 сен 2014, 21:53

Anonymous Перейти к последнему сообщению

В этой теме нет новых непрочитанных сообщений. Скачать торрент Уличный боец / Street Fighter: The Legend of Chun-Li (Анджей Бартковяк / Andrzej Bartkowiak) [2009, США / Канада, фэнтези, боевик, криминал, HDRip] MVO

в форуме Фантастика, Фэнтези, Размер: 1.37 ГБ, Здоровье: 100%

Anonymous

0
16|5

35
0

12 фев 2014, 11:46

Anonymous Перейти к последнему сообщению

В этой теме нет новых непрочитанных сообщений. Скачать торрент Проверен Кулак ярости / Fist of Fury / Jing wu men (1972) BDRip

в форуме Боевики, Размер: 2.18 ГБ, Здоровье: 100%

Anonymous

0
35|10

78
304

06 сен 2014, 22:32

Anonymous Перейти к последнему сообщению

В этой теме нет новых непрочитанных сообщений. Скачать торрент Проверен Кулак ярости / Fist Of Fury / Jing wu men (1972) BDRip 1080p | FRA Transfer

в форуме 720p | 1080p, Размер: 7.76 ГБ, Здоровье: 96%

Anonymous

0
28|29

61
41

06 сен 2014, 22:29

Anonymous Перейти к последнему сообщению

В этой теме нет новых непрочитанных сообщений. Скачать торрент Боец / The Fighter (Дэвид О. Расселл / David O. Russell) [2010 г., драма, биография, спорт, BDRip-AVC] DUB + Original + Subs (Rus, Eng)

в форуме 720p | 1080p, Размер: 1.46 ГБ, Здоровье: 100%

Anonymous

0
34|11

31
0

13 фев 2014, 11:38

Anonymous Перейти к последнему сообщению



Сейчас этот форум просматривают: нет зарегистрированных пользователей и гости: 1


Вы не можете начинать темы
Вы не можете отвечать на сообщения
Вы не можете редактировать свои сообщения
Вы не можете удалять свои сообщения
Вы не можете добавлять вложения

Перейти:  

!ВНИМАНИЕ!
 Ресурс не предоставляет электронные версии произведений, а занимается лишь коллекционированием и каталогизацией ссылок, присылаемых и публикуемых на форуме нашими читателями. Если вы являетесь правообладателем какого-либо представленного материала и не желаете чтобы ссылка на него находилась в нашем каталоге, свяжитесь с нами и мы незамедлительно удалим её. Файлы для обмена на трекере предоставлены пользователями сайта, и администрация не несёт ответственности за их содержание. Просьба не заливать файлы, защищенные авторскими правами, а также файлы нелегального содержания!