На всех торрентах на трекере установлена скидка на скачивание в размере 100 процентов(а).
 Возможность скачивания торрента НЕ зависит от ограничений при низком ратио, низком аплоаде, требуемом ратио или требуемом аплоаде.


Начать новую тему Ответить на тему
Статистика раздачи
Размер: 1.45 ГБ | Добавлен: 31 авг 2014, 11:50 | Скачали: 971
Сидеров: 372  [0 байт/сек]    Личеров: 114  [0 байт/сек]
Пред. тема | След. тема 

Автор
Сообщение

СообщениеДобавлено: 31 авг 2014, 11:50 

Название: Всем нужна Кэт 2
Оригинальное название: Cat Run 2
Год выхода: 2014
Жанр: боевик
Режиссер: Джон Стокуэлл

В ролях: Скотт Мехловиц, Альфонсо МакОли, Винтер Эйв Золи, Kamille Leai, Ванесса Бренч, Мария Роджерс, Лоуренс П. Берон, Томас Та Хайд III, Дэвид Мальдонадо, Леонардо Нам

О фильме: Когда несколько высокопоставленных чиновников убиты на их собственной военной базе, два детектива обнаружили сверхсекретный эксперимент, который ставит под угрозу их жизнь и безопасность страны. Энтони и Джулиан - детективы-дебютанты решили совершить поездку в Новый Орлеан...



Выпущено: США / Lleuju Productions
Продолжительность: 01:36:11
Озвучивание: Любительское (одноголосное) [Andi]


Формат: MKV
Качество: BDRip-AVC
Видео: 1774 kb/s, 1024x576
Аудио: AC3, 384 kb/s (6 ch)





Format : Matroska
Format version : Version 4 / Version 2
File size : 1.45 GiB
Duration : 1h 36mn
Overall bit rate : 2 159 Kbps
Movie name : Rib by 03nazar03
Encoded date : UTC 2014-08-30 12:12:39
Writing application : mkvmerge v6.1.0 ('Old Devil') built on Mar 4 2013 09:10:42
Writing library : libebml v1.3.0 + libmatroska v1.4.0

Video
ID : 1
Format : AVC
Format/Info : Advanced Video Codec
Format profile : High@L4.1
Format settings, CABAC : Yes
Format settings, ReFrames : 9 frames
Codec ID : V_MPEG4/ISO/AVC
Duration : 1h 36mn
Bit rate : 1 774 Kbps
Width : 1 024 pixels
Height : 576 pixels
Display aspect ratio : 16:9
Frame rate : 23.976 fps
Color space : YUV
Chroma subsampling : 4:2:0
Bit depth : 8 bits
Scan type : Progressive
Bits/(Pixel*Frame) : 0.125
Stream size : 1.16 GiB (80%)
Title : Cat Run 2
Writing library : x264 core 130 r2273 b3065e6
Encoding settings : cabac=1 / ref=9 / deblock=1:-3:-3 / analyse=0x3:0x133 / me=umh / subme=11 / psy=1 / psy_rd=1.00:0.20 / mixed_ref=1 / me_range=48 / chroma_me=1 / trellis=2 / 8x8dct=1 / cqm=0 / deadzone=21,11 / fast_pskip=1 / chroma_qp_offset=-3 / threads=18 / lookahead_threads=3 / sliced_threads=0 / nr=0 / decimate=1 / interlaced=0 / bluray_compat=0 / constrained_intra=0 / bframes=8 / b_pyramid=2 / b_adapt=2 / b_bias=0 / direct=3 / weightb=1 / open_gop=0 / weightp=2 / keyint=250 / keyint_min=23 / scenecut=40 / intra_refresh=0 / rc=2pass / mbtree=0 / bitrate=1774 / ratetol=1.0 / qcomp=0.60 / qpmin=0 / qpmax=69 / qpstep=4 / cplxblur=20.0 / qblur=0.5 / ip_ratio=1.40 / pb_ratio=1.30 / aq=1:1.00
Language : English
Default : Yes
Forced : No

Audio
ID : 2
Format : AC-3
Format/Info : Audio Coding 3
Mode extension : CM (complete main)
Format settings, Endianness : Big
Codec ID : A_AC3
Duration : 1h 36mn
Bit rate mode : Constant
Bit rate : 384 Kbps
Channel(s) : 6 channels
Channel positions : Front: L C R, Side: L R, LFE
Sampling rate : 48.0 KHz
Bit depth : 16 bits
Compression mode : Lossy
Stream size : 264 MiB (18%)
Title : Andi
Language : Russian
Default : Yes
Forced : No
загрузка...
Правила, инструкции, FAQ!!!
Торрент  Добавлен [31 авг 2014, 11:50] Скачать торрент
Скачать торрент
[ Размер 15.11 КБ / Просмотров 21 ]

Статус
Проверен 
 
Размер  1.45 ГБ
Приватный: Нет (DHT включён)
.torrent скачан  971
Как залить торрент? | Как скачать Torrent? | Как смотреть и слушать онлайн?  


     Отправить личное сообщение
   
Страница 1 из 1
Показать сообщения за:  Поле сортировки  
Начать новую тему Ответить на тему

   Похожие торренты   Автор   Ответы   Просмотры   Последнее сообщение 
В этой теме нет новых непрочитанных сообщений. Скачать торрент Проверен Various - Владимир Шаинский – Всем, Всем, Всем... (Песни для детей) (1987) [FLAC 2.0 24/96|traks(Vinil-Rip)]<Pop, Children's>

в форуме Vinyl-Rip и Hand-Made, Размер: 1.19 ГБ, Здоровье: 100%

Anonymous

0
1|1

87
3

07 фев 2015, 23:48

Anonymous Перейти к последнему сообщению

В этой теме нет новых непрочитанных сообщений. Скачать торрент Проверен Всем нужна Кэт 2 / Cat Run 2 (2014) BDRip 720p | L1

в форуме 720p | 1080p, Размер: 5.36 ГБ, Здоровье: 100%

Anonymous

0
277|124

43
630

31 авг 2014, 12:18

Anonymous Перейти к последнему сообщению

В этой теме нет новых непрочитанных сообщений. Скачать торрент Проверен Звезды светят всем (2014) HDTVRip

в форуме Драмы, Мелодрамы, Размер: 1.37 ГБ, Здоровье: 42%

Гость

0
64|152

111
119

30 ноя 2014, 10:05

Гость Перейти к последнему сообщению

В этой теме нет новых непрочитанных сообщений. Скачать торрент Проверен Вадим Давыдов | Всем смертям назло (2014) [FB2]

в форуме Фантастика, фэнтези, Размер: 2.22 МБ, Здоровье: 100%

Anonymous

0
5|0

30
2

04 авг 2014, 19:26

Anonymous Перейти к последнему сообщению

В этой теме нет новых непрочитанных сообщений. Скачать торрент Проверен (New Emo Wave) Пи4алька - Всем суицид - 2014 [MP3, 320 kbps]

в форуме Русский Рок, Размер: 86.6 МБ, Здоровье: 0%

Anonymous

0
0|0

0
0

22 авг 2016, 12:52

Anonymous Перейти к последнему сообщению



Сейчас этот форум просматривают: нет зарегистрированных пользователей и гости: 1


Вы не можете начинать темы
Вы не можете отвечать на сообщения
Вы не можете редактировать свои сообщения
Вы не можете удалять свои сообщения
Вы не можете добавлять вложения

Перейти:  

!ВНИМАНИЕ!
 Ресурс не предоставляет электронные версии произведений, а занимается лишь коллекционированием и каталогизацией ссылок, присылаемых и публикуемых на форуме нашими читателями. Если вы являетесь правообладателем какого-либо представленного материала и не желаете чтобы ссылка на него находилась в нашем каталоге, свяжитесь с нами и мы незамедлительно удалим её. Файлы для обмена на трекере предоставлены пользователями сайта, и администрация не несёт ответственности за их содержание. Просьба не заливать файлы, защищенные авторскими правами, а также файлы нелегального содержания!