На всех торрентах на трекере установлена скидка на скачивание в размере 100 процентов(а).
 Возможность скачивания торрента НЕ зависит от ограничений при низком ратио, низком аплоаде, требуемом ратио или требуемом аплоаде.


Начать новую тему Ответить на тему
Статистика раздачи
Размер: 3.08 ГБ | Добавлен: 28 фев 2013, 12:54 | Скачали: 1
Сидеров: 0  [0 байт/сек]    Личеров: 0  [0 байт/сек]
Пред. тема | След. тема 

Автор
Сообщение

СообщениеДобавлено: 28 фев 2013, 12:54 

Воин / Warrior
«Family is worth fighting for.»


Страна: США
Жанр: боевик, драма, спорт
Год выпуска: 2011
Продолжительность: 02:19:54
Перевод: Профессиональный (многоголосый закадровый) [Лицензия 5.1]
Перевод: Авторский (одноголосый закадровый) [Ю.Сербин]
Cубтитры: Russian (R5), Russian (Voronine), English, English SDH, Spanish
Оригинальная аудиодорожка: английский
Режиссер: Гэвин О’Коннор / Gavin O'Connor[br][/br]

В фильме снимались: Джоэл Эдгертон, Том Харди, Ник Нолти, Дженнифер Моррисон, Фрэнк Грилло, Кевин Данн, Максимилианно Эрнандез, Брайан Коллен, Сэм Шеридан, Фернандо Чиен[br][/br]

Вкратце: Младший сын спившегося боксера возвращается домой, чтобы отец тренировал его для предстоящего турнира по боевым искусствам. Однако, на этом пути бойцу придется столкнуться со своим старшим братом.

kinopoisk

Качество видео: BDRip [Blu-ray Remux /1080p]
Формат видео: AVI
Видео: XviD, 720x304 (2.35:1), 23.976 fps, 1800 kbps
Аудио 1: AC-3, 48 kHz, 448 kbps,6 channels Front (L C R) Side (L R) Russian(R5)
Аудио 2: AC-3, 48 kHz, 448 kbps,6 channels Front (L C R) Side (L R) Russian(Serbin) [отдельным файлом]
Аудио 3: AC-3, 48 kHz, 448 kbps,6 channels Front (L C R) Side (L R) English [отдельным файлом]
Формат субтитров: softsub (SRT) [отдельным файлом]
MediaInfo
General
Complete name : D:\Downloads\Warrior_2011_BDRip\Warrior_2011_BDRip.avi
Format : AVI
Format/Info : Audio Video Interleave
Format profile : OpenDML
Format settings : rec
File size : 2.20 GiB
Duration : 2h 19mn
Overall bit rate : 2 253 Kbps[br][/br]Video
ID : 0
Format : MPEG-4 Visual
Format profile : Advanced Simple@L5
Format settings, BVOP : 2
Format settings, QPel : No
Format settings, GMC : No warppoints
Format settings, Matrix : Default (MPEG)
Codec ID : XVID
Codec ID/Hint : XviD
Duration : 2h 19mn
Bit rate : 1 800 Kbps
Width : 720 pixels
Height : 304 pixels
Display aspect ratio : 2.35:1
Frame rate : 23.976 fps
Color space : YUV
Chroma subsampling : 4:2:0
Bit depth : 8 bits
Scan type : Progressive
Compression mode : Lossy
Bits/(Pixel*Frame) : 0.343
Stream size : 1.76 GiB (80%)
Writing library : XviD 1.2.1 (UTC 2008-12-04)[br][/br]Audio
ID : 1
Format : AC-3
Format/Info : Audio Coding 3
Codec ID : 2000
Duration : 2h 19mn
Bit rate mode : Constant
Bit rate : 448 Kbps
Channel(s) : 6 channels
Sampling rate : 48.0 KHz
Compression mode : Lossy
Stream size : 448 MiB (20%)
Alignment : Aligned on interleaves
Title : Warrior_2011_rus_R5(5.1)_audio_audio
Скриншоты
загрузка...
Правила, инструкции, FAQ!!!
Торрент  Добавлен [28 фев 2013, 12:54] Скачать торрент
Скачать торрент
[ Размер 16.33 КБ / Просмотров 20 ]

Статус  
 
Размер  3.08 ГБ
Приватный: Нет (DHT включён)
.torrent скачан  1
Как залить торрент? | Как скачать Torrent? | Как смотреть и слушать онлайн?  


     Отправить личное сообщение
   
Страница 1 из 1
Показать сообщения за:  Поле сортировки  
Начать новую тему Ответить на тему

   Похожие торренты   Автор   Ответы   Просмотры   Последнее сообщение 
В этой теме нет новых непрочитанных сообщений. Скачать торрент Мирный воин / Peaceful Warrior (Виктор Сальва / Victor Salva) [2006 г., мелодрама, драма, спорт, DVDRip] Mvo + Original + sub

в форуме Драмы, Мелодрамы, Размер: 2.19 ГБ, Здоровье: 100%

Anonymous

0
51|16

45
18

13 фев 2014, 06:34

Anonymous Перейти к последнему сообщению

В этой теме нет новых непрочитанных сообщений. Скачать торрент Сладкий ноябрь / Sweet November (Пэт О’Коннор / Pat O'Connor) [2001, США, драма, мелодрама, HDRip] Dub

в форуме Драмы, Мелодрамы, Размер: 2.19 ГБ, Здоровье: 100%

Anonymous

0
47|16

24
0

24 апр 2014, 14:06

Anonymous Перейти к последнему сообщению

В этой теме нет новых непрочитанных сообщений. Скачать торрент Проверен [MP4 640x272] Воин / Warrior (2011) BDRip

в форуме Видео для смартфонов и КПК, Размер: 828.09 МБ, Здоровье: 50%

Anonymous

0
1|2

60
0

25 окт 2014, 23:29

Anonymous Перейти к последнему сообщению

В этой теме нет новых непрочитанных сообщений. Скачать торрент Проверен Воин / Warrior (2011) BDRip | Живов

в форуме Боевики, Размер: 2.17 ГБ, Здоровье: 100%

Гость

0
56|12

220
90

16 ноя 2015, 00:00

Гость Перейти к последнему сообщению

В этой теме нет новых непрочитанных сообщений. Скачать торрент Неоспоримый 2 / Обсуждению не подлежит 2 / Undisputed II: Last Man Standing (Айзек Флорентайн / Isaac Florentine) [2006, боевик, драма, криминал, спорт, BDRip]

в форуме Боевики, Размер: 744.06 МБ, Здоровье: 100%

Anonymous

0
14|5

49
0

19 апр 2014, 18:50

Anonymous Перейти к последнему сообщению



Сейчас этот форум просматривают: нет зарегистрированных пользователей и гости: 1


Вы не можете начинать темы
Вы не можете отвечать на сообщения
Вы не можете редактировать свои сообщения
Вы не можете удалять свои сообщения
Вы не можете добавлять вложения

Перейти:  

!ВНИМАНИЕ!
 Ресурс не предоставляет электронные версии произведений, а занимается лишь коллекционированием и каталогизацией ссылок, присылаемых и публикуемых на форуме нашими читателями. Если вы являетесь правообладателем какого-либо представленного материала и не желаете чтобы ссылка на него находилась в нашем каталоге, свяжитесь с нами и мы незамедлительно удалим её. Файлы для обмена на трекере предоставлены пользователями сайта, и администрация не несёт ответственности за их содержание. Просьба не заливать файлы, защищенные авторскими правами, а также файлы нелегального содержания!