На всех торрентах на трекере установлена скидка на скачивание в размере 100 процентов(а).
 Возможность скачивания торрента НЕ зависит от ограничений при низком ратио, низком аплоаде, требуемом ратио или требуемом аплоаде.


Начать новую тему Ответить на тему
Статистика раздачи
Размер: 3.08 ГБ | Добавлен: 28 фев 2013, 12:50 | Скачали: 0
Сидеров: 0  [0 байт/сек]    Личеров: 0  [0 байт/сек]
Пред. тема | След. тема 

Автор
Сообщение

СообщениеДобавлено: 28 фев 2013, 12:50 

007: Координаты «Скайфолл» / Skyfall



Страна: Великобритания, США
Жанр: Боевик, Триллер, Криминал, Приключения
Год выпуска: 2012
Продолжительность: 02:23:09

Перевод: Профессиональный (дублированный) Лицензия
Перевод 2: Профессиональный (дублированный) Украинский
Cубтитры: Русские (форс. + полные), Украинские (форс.), Английские
Оригинальная аудиодорожка: Английский

Режиссер: Сэм Мендес / Sam Mendes


В фильме снимались: Дэниэл Крэйг /Daniel Craig/, Хавьер Бардем /Javier Bardem/, Джуди Денч /Judi Dench/, Наоми Харрис /Naomie Harris/, Бен Уишоу /Ben Whishaw/, Альберт Финни /Albert Finney/, Беренис Марло /Bérénice Marlohe/, Хелен МакКрори /Helen McCrory/, Тония Сотиропулу /Tonia Sotiropoulou/, Рэйф Файнс /Ralph Fiennes/
Описание: Лояльность Бонда своей начальнице М под угрозой со стороны ее прошлого, которое внезапно даст о себе знать. MI6 подвергается нападению, и агент 007 должен ликвидировать угрозу, несмотря на цену, которую придется заплатить.





Качество видео: BDRip / Исходник: (Blu-ray)
Формат видео: AVI
Видео: 720x304 (2.37:1), 23.976 fps, XviD MPEG-4 ~1728 kbps avg, 0.33 bit/pixel
Аудио: 48 kHz, AC3 Dolby Digital, 3/2 (L,C,R,l,r) + LFE ch, ~448.00 kbps avg / Дубляж
Аудио 2: 48 kHz, AC3 Dolby Digital, 3/2 (L,C,R,l,r) + LFE ch, ~448.00 kbps avg / Украинский дубляж Отдельно
Аудио 3: 48 kHz, AC3 Dolby Digital, 3/2 (L,C,R,l,r) + LFE ch, ~448.00 kbps avg / Оригинал Отдельно
Формат субтитров: softsub (SRT)

MediaInfo
Код:
Код:
Format                           : AVI
Format/Info                      : Audio Video Interleave
Format profile                   : OpenDML
File size                        : 2.18 GiB
Duration                         : 2h 23mn
Overall bit rate                 : 2 183 Kbps
Movie name                       : Skyfall (2012)
Director                         : Vaippp
Genre                            : Action/Crime/Thriller
Writing application              : VirtualDubModRus 1.5.10.2 (build 2542/release)
Original source form/Name        : Movie
Copyright                        : HQ-ViDEO
Comment                          : BDRip[br][/br]Video
ID                               : 0
Format                           : MPEG-4 Visual
Format profile                   : Advanced Simple@L5
Format settings, BVOP            : Yes
Format settings, QPel            : No
Format settings, GMC             : No warppoints
Format settings, Matrix          : Custom
Codec ID                         : XVID
Codec ID/Hint                    : XviD
Duration                         : 2h 23mn
Bit rate                         : 1 723 Kbps
Width                            : 720 pixels
Height                           : 304 pixels
Display aspect ratio             : 2.35:1
Frame rate                       : 23.976 fps
Color space                      : YUV
Chroma subsampling               : 4:2:0
Bit depth                        : 8 bits
Scan type                        : Progressive
Bits/(Pixel*Frame)               : 0.328
Stream size                      : 1.72 GiB (79%)
Writing library                  : XviD 73[br][/br]Audio
ID                               : 1
Format                           : AC-3
Format/Info                      : Audio Coding 3
Mode extension                   : CM (complete main)
Codec ID                         : 2000
Duration                         : 2h 23mn
Bit rate mode                    : Constant
Bit rate                         : 448 Kbps
Channel(s)                       : 6 channels
Channel positions                : Front: L C R, Side: L R, LFE
Sampling rate                    : 48.0 KHz
Bit depth                        : 16 bits
Stream size                      : 459 MiB (21%)
Alignment                        : Split accross interleaves
Interleave, duration             : 42 ms (1.00 video frame)
Interleave, preload duration     : 500 ms


загрузка...
Правила, инструкции, FAQ!!!
Торрент  Добавлен [28 фев 2013, 12:50] Скачать торрент
Скачать торрент
[ Размер 16.55 КБ / Просмотров 10 ]

Статус  
 
Размер  3.08 ГБ
Приватный: Нет (DHT включён)
.torrent скачан  0
Как залить торрент? | Как скачать Torrent? | Как смотреть и слушать онлайн?  


     Отправить личное сообщение
   
Страница 1 из 1
Показать сообщения за:  Поле сортировки  
Начать новую тему Ответить на тему

   Похожие торренты   Автор   Ответы   Просмотры   Последнее сообщение 
В этой теме нет новых непрочитанных сообщений. Скачать торрент Дорога перемен / Revolutionary Road (Сэм Мендес / Sam Mendes) [2008, США, Великобритания, Драма, мелодрама, BDRip] Dub

в форуме Драмы, Мелодрамы, Размер: 1.46 ГБ, Здоровье: 0%

Anonymous

0
0|0

25
0

13 фев 2014, 06:32

Anonymous Перейти к последнему сообщению

В этой теме нет новых непрочитанных сообщений. Скачать торрент Проверен Крепкий орешек 4.0 / Live Free or Die Hard (Лен Уайзман) [2007, США, Великобритания, боевик, триллер, криминал, BDRip SD (480p)] DUB (rus, ukr), MVO, AVO, Original + SUB (rus, ukr, eng)

в форуме Фильмы для iPod, iPhone, iPad, Размер: 2.46 ГБ, Здоровье: 100%

Гость

0
50|16

46
0

11 май 2015, 01:26

Гость Перейти к последнему сообщению

В этой теме нет новых непрочитанных сообщений. Скачать торрент Проверен [iPad] Джеймс Бонд 007: Вид на убийство / James Bond 007: A View to a Kill (Джон Глен / John Glen) [1985, США, Великобритания, Боевик, триллер, приключения, BDRip] DUB, Original (Eng), Sub (Rus, Eng)

в форуме Фильмы для iPod, iPhone, iPad, Размер: 3.14 ГБ, Здоровье: 75%

Anonymous

0
3|4

36
0

14 май 2015, 00:01

Anonymous Перейти к последнему сообщению

В этой теме нет новых непрочитанных сообщений. Скачать торрент Проверен [iPad] Люди Икс: Дни минувшего будущего / X-Men: Days of Future Past (Брайан Сингер / Bryan Singer ) [2014, США, Великобритания , Фантастика, боевик, триллер, приключения, BDRip, SD (576p)] DUB + Original + sub (rus for, rus, eng for, eng)

в форуме Фильмы для iPod, iPhone, iPad, Размер: 2.33 ГБ, Здоровье: 100%

Гость

0
25|8

55
0

11 май 2015, 01:31

Гость Перейти к последнему сообщению

В этой теме нет новых непрочитанных сообщений. Скачать торрент Проверен [iPad] Морпехи / Jarhead (Сэм Мендес/ Sam Mendes) [2005, Германия, США, Военный, драма, биография, BDRip, 576p] Dub + Original + sub (rus, eng)

в форуме Фильмы для iPod, iPhone, iPad, Размер: 2.11 ГБ, Здоровье: 100%

Anonymous

0
4|1

43
0

18 май 2015, 10:47

Anonymous Перейти к последнему сообщению



Сейчас этот форум просматривают: нет зарегистрированных пользователей и гости: 2


Вы не можете начинать темы
Вы не можете отвечать на сообщения
Вы не можете редактировать свои сообщения
Вы не можете удалять свои сообщения
Вы не можете добавлять вложения

Перейти:  

!ВНИМАНИЕ!
 Ресурс не предоставляет электронные версии произведений, а занимается лишь коллекционированием и каталогизацией ссылок, присылаемых и публикуемых на форуме нашими читателями. Если вы являетесь правообладателем какого-либо представленного материала и не желаете чтобы ссылка на него находилась в нашем каталоге, свяжитесь с нами и мы незамедлительно удалим её. Файлы для обмена на трекере предоставлены пользователями сайта, и администрация не несёт ответственности за их содержание. Просьба не заливать файлы, защищенные авторскими правами, а также файлы нелегального содержания!