На всех торрентах на трекере установлена скидка на скачивание в размере 100 процентов(а).
 Возможность скачивания торрента НЕ зависит от ограничений при низком ратио, низком аплоаде, требуемом ратио или требуемом аплоаде.


Начать новую тему Ответить на тему
Статистика раздачи
Размер: 2.01 ГБ | Добавлен: 28 фев 2013, 12:48 | Скачали: 0
Сидеров: 56  [0 байт/сек]    Личеров: 19  [0 байт/сек]
Пред. тема | След. тема 

Автор
Сообщение

СообщениеДобавлено: 28 фев 2013, 12:48 

Форсаж 5 / Fast Five



Страна: США
Жанр: боевик, триллер, драма, криминал
Год выпуска: 2011
Продолжительность: 02:11:34

Перевод: Профессиональный (дублированный) и на рассширенные места прилагается одноголосая озвучка [Nickelson] + субтитры.
Cубтитры: русские
Режиссер: Джастин Лин / Justin Lin


В фильме снимались: Вин Дизель, Пол Уокер, Дуэйн Джонсон, Джордана Брюстер, Тайриз Гибсон, Лудакрис, Мэтт Шульце, Санг Кенг, Гал Гадот, Тего Калдерон, Дон Омар


Вкратце: Бывший полицейский Брайан О'Коннер вместе с бывалым лихачем Домиником Торетто совсем немного увлеклись жизнью вне закона. После того, как Брайан и Миа Торетто освободили Доминика, они не рискуют долго задерживаться на одном месте, так как являются желанной целью порядком недовольных копов.


Качество видео: HDRip
Формат видео: AVI

Видео: XviD, 688x288 (2.39:1), 23.976 fps, 1981 kbps avg, 0.42 bit/pixel
Аудио: Ac-3, 192 kb/s, 48.0 KHz, 2 channels

Формат субтитров: softsub (SRT)

MediaInfo
Format : AVI
Format/Info : Audio Video Interleave
Format profile : OpenDML
File size : 2.01 GiB
Duration : 2h 11mn
Overall bit rate : 2 185 Kbps
Writing application : VirtualDubMod 1.5.10.2 (build 2540/release)
Writing library : VirtualDubMod build 2540/release[br][/br]Video
ID : 0
Format : MPEG-4 Visual
Format profile : Advanced Simple@L5
Format settings, BVOP : Yes
Format settings, QPel : No
Format settings, GMC : No warppoints
Format settings, Matrix : Custom
Codec ID : XVID
Codec ID/Hint : XviD
Duration : 2h 11mn
Bit rate : 1 981 Kbps
Width : 688 pixels
Height : 288 pixels
Display aspect ratio : 2.35:1
Frame rate : 23.976 fps
Color space : YUV
Chroma subsampling : 4:2:0
Bit depth : 8 bits
Scan type : Progressive
Compression mode : Lossy
Bits/(Pixel*Frame) : 0.417
Stream size : 1.82 GiB (91%)
Writing library : XviD 1.2.1 (UTC 2008-12-04)[br][/br]Audio
ID : 1
Format : AC-3
Format/Info : Audio Coding 3
Mode extension : CM (complete main)
Codec ID : 2000
Duration : 2h 11mn
Bit rate mode : Constant
Bit rate : 192 Kbps
Channel(s) : 2 channels
Channel positions : Front: L R
Sampling rate : 48.0 KHz
Bit depth : 16 bits
Compression mode : Lossy
Stream size : 181 MiB (9%)
Alignment : Split accross interleaves
Interleave, duration : 42 ms (1.00 video frame)
Interleave, preload duration : 500 ms



загрузка...
Правила, инструкции, FAQ!!!
Торрент  Добавлен [28 фев 2013, 12:48] Скачать торрент
Скачать торрент
[ Размер 10.62 КБ / Просмотров 12 ]

Статус  
 
Размер  2.01 ГБ
Приватный: Нет (DHT включён)
.torrent скачан  0
Как залить торрент? | Как скачать Torrent? | Как смотреть и слушать онлайн?  


     Отправить личное сообщение
   
Страница 1 из 1
Показать сообщения за:  Поле сортировки  
Начать новую тему Ответить на тему

   Похожие торренты   Автор   Ответы   Просмотры   Последнее сообщение 
В этой теме нет новых непрочитанных сообщений. Скачать торрент Форсаж 4 / Fast & Furious (Джастин Лин / Justin Lin) [2009, Боевик, триллер, драма, криминал, BDRip]

в форуме Боевики, Размер: 1.46 ГБ, Здоровье: 100%

Anonymous

0
56|19

61
0

17 фев 2014, 11:45

Anonymous Перейти к последнему сообщению

В этой теме нет новых непрочитанных сообщений. Скачать торрент Проверен [iPad] Форсаж 4 / Fast & Furious (Джастин Лин / Justin Lin) [2009 г., боевик, триллер, драма, криминал, BDRip]

в форуме Фильмы для iPod, iPhone, iPad, Размер: 2.89 ГБ, Здоровье: 100%

Гость

0
21|7

39
0

11 май 2015, 01:31

Гость Перейти к последнему сообщению

В этой теме нет новых непрочитанных сообщений. Скачать торрент Проверен [iPad] Форсаж 5 | Fast Five (Джастин Лин / Justin Lin) [2011, боевик, триллер, криминал, BDRip 1024x436] [Unrated] DUB, Original, sub(rus(forced), rus(full), eng)

в форуме Фильмы для iPod, iPhone, iPad, Размер: 3.16 ГБ, Здоровье: 100%

Гость

0
25|8

83
0

18 май 2015, 10:54

Гость Перейти к последнему сообщению

В этой теме нет новых непрочитанных сообщений. Скачать торрент Проверен [iPhone] Форсаж. Пенталогия / The Fast and the Furious Pentalogy (Роб Коэн, Джон Синглтон, Джастин Лин / Rob Cohen, John Singleton, Justin Lin) [2001-2011 г., боевик, триллер, криминал, BDRip, 480x200]

в форуме Фильмы для iPod, iPhone, iPad, Размер: 3 ГБ, Здоровье: 100%

Anonymous

0
1|0

77
0

14 май 2015, 00:21

Anonymous Перейти к последнему сообщению

В этой теме нет новых непрочитанных сообщений. Скачать торрент Код да Винчи / The Da Vinci Code (Рон Ховард / Ron Howard) [2006 г., триллер, детектив, BDRip] [расширенная версия / extended edition] Dub (вставки MVO)

в форуме Триллеры, Размер: 2.18 ГБ, Здоровье: 100%

Anonymous

0
56|19

54
0

12 фев 2014, 11:45

Anonymous Перейти к последнему сообщению



Сейчас этот форум просматривают: нет зарегистрированных пользователей и гости: 2


Вы не можете начинать темы
Вы не можете отвечать на сообщения
Вы не можете редактировать свои сообщения
Вы не можете удалять свои сообщения
Вы не можете добавлять вложения

Перейти:  

!ВНИМАНИЕ!
 Ресурс не предоставляет электронные версии произведений, а занимается лишь коллекционированием и каталогизацией ссылок, присылаемых и публикуемых на форуме нашими читателями. Если вы являетесь правообладателем какого-либо представленного материала и не желаете чтобы ссылка на него находилась в нашем каталоге, свяжитесь с нами и мы незамедлительно удалим её. Файлы для обмена на трекере предоставлены пользователями сайта, и администрация не несёт ответственности за их содержание. Просьба не заливать файлы, защищенные авторскими правами, а также файлы нелегального содержания!