На всех торрентах на трекере установлена скидка на скачивание в размере 100 процентов(а).
 Возможность скачивания торрента НЕ зависит от ограничений при низком ратио, низком аплоаде, требуемом ратио или требуемом аплоаде.


Начать новую тему Ответить на тему
Статистика раздачи
Размер: 2.51 ГБ | Добавлен: 23 фев 2013, 10:25 | Скачали: 0
Сидеров: 56  [0 байт/сек]    Личеров: 19  [0 байт/сек]
Пред. тема | След. тема 

Автор
Сообщение

СообщениеДобавлено: 23 фев 2013, 10:25 

Кровавый четверг / Thursday




Страна: США
Жанр: боевик, триллер, драма, криминал
Год выпуска: 1998
Продолжительность: 01:24:11

Перевод: Профессиональный (многоголосый закадровый)
****************************************************
Отдельно:
Перевод: Авторский (одноголосый закадровый) Гоблин - New
Перевод: Авторский (одноголосый закадровый) Гоблин - Old
Перевод: Авторский (одноголосый закадровый) Живов
Cубтитры: русские, английские
Оригинальная аудиодорожка: английский

Режиссер: Скип Вудс / Skip Woods

В фильме снимались: Томас Джейн, Аарон Экхарт, Паулина Поризкова, Джеймс ЛеГро, Пола Маршалл, Майкл Джитер, Гленн Пламмер, Микки Рурк, Люк Хари, Бари К. Уиллерфорд

Вкратце: Живёт в Хьюстоне вполне добропорядочный господин, кто может подумать, что он был когда-то торговцем наркотиками, что прошёл он через ад. Но вот его находит бывший партнёр по "бизнесу" и предлагает ему ещё раз провернуть дело с героином. На этот раз наркодельцу придётся спасать свою жизнь.

Качество видео:HDTVRip(Исх. HDTVRip 1080i)
Формат видео: AVI

Видео: 720x400 (1.80:1), 50 fps, XviD build 50 ~2013 kbps avg, 0.14 bit/pixel
Аудио: 48 kHz, AC3 Dolby Digital, 3/2 (L,C,R,l,r) + LFE ch, ~448 kbps MVO
***********************************************************************************
Отдельно:
Аудио: 48 kHz, AC3 Dolby Digital, 3/2 (L,C,R,l,r) + LFE ch, ~448 kbps Гоблин - New
Аудио: 48 kHz, AC3 Dolby Digital, 3/2 (L,C,R,l,r) + LFE ch, ~448 kbps Гоблин - Old
Аудио: 48 kHz, AC3 Dolby Digital, 3/2 (L,C,R,l,r) + LFE ch, ~448 kbps Живов
Аудио: 48 kHz, AC3 Dolby Digital, 3/2 (L,C,R,l,r) + LFE ch, ~448 kbps ENG
Формат субтитров: softsub (SRT)




File: Krovaviy chetverg.chopper887.avi
Title: Krovaviy chetverg.chopper887
Author: chopper887
Copyleft: rutracker.org
Genre: Crime/Drama/Thriller
Category: Movie
Filesize: 1491.68 Mb ( 1 564 141 568 bytes )
Play length: 01:24:05.620 (252281 frames)
Subtitles: eng, rus-Goblin-New, rus-Goblin-Old, rus (SubRip format)
Video: 720x400 (1.80:1), 50 fps, XviD build 50 ~2013 kbps avg, 0.14 bit/pixel
Audio: 48 kHz, AC3 Dolby Digital, 3/2 (L,C,R,l,r) + LFE ch, ~448 kbps



General
Complete name : L:\Krovaviy chetverg.chopper887\Krovaviy chetverg.chopper887.avi
Format : AVI
Format/Info : Audio Video Interleave
File size : 1.46 GiB
Duration : 1h 24mn
Overall bit rate : 2 480 Kbps
Movie name : Krovaviy chetverg.chopper887
Director : chopper887
Genre : Crime/Drama/Thriller
Writing application : VirtualDubMod 1.5.10.2 (build 2540/release)
Original source form/Name : Movie
Copyright : rutracker.org

Video
ID : 0
Format : MPEG-4 Visual
Format profile : AdvancedSimple@L5
Format settings, BVOP : Yes
Format settings, QPel : No
Format settings, GMC : No warppoints
Format settings, Matrix : Custom
Codec ID : XVID
Codec ID/Hint : XviD
Duration : 1h 24mn
Bit rate : 2 013 Kbps
Width : 720 pixels
Height : 400 pixels
Display aspect ratio : 16:9
Frame rate : 50.000 fps
Resolution : 24 bits
Colorimetry : 4:2:0
Scan type : Progressive
Bits/(Pixel*Frame) : 0.140
Stream size : 1.18 GiB (81%)
Writing library : XviD 1.2.1 (UTC 2008-12-04)

Audio
ID : 1
Format : AC-3
Format/Info : Audio Coding 3
Codec ID : 2000
Duration : 1h 24mn
Bit rate mode : Constant
Bit rate : 448 Kbps
Channel(s) : 6 channels
Channel positions : Front: L C R, Surround: L R, LFE
Sampling rate : 48.0 KHz
Stream size : 269 MiB (18%)
Alignment : Split accross interleaves
Interleave, duration : 20 ms (1.00 video frame)
Interleave, preload duration : 500 ms




загрузка...
Правила, инструкции, FAQ!!!
Торрент  Добавлен [23 фев 2013, 10:25] Скачать торрент
Скачать торрент
[ Размер 13.64 КБ / Просмотров 8 ]

Статус
Проверен 
 
Размер  2.51 ГБ
Приватный: Нет (DHT включён)
.torrent скачан  0
Как залить торрент? | Как скачать Torrent? | Как смотреть и слушать онлайн?  


     Отправить личное сообщение
   
Страница 1 из 1
Показать сообщения за:  Поле сортировки  
Начать новую тему Ответить на тему

   Похожие торренты   Автор   Ответы   Просмотры   Последнее сообщение 
В этой теме нет новых непрочитанных сообщений. Скачать торрент Кровавый четверг / Thursday (1998) HDRip | P

в форуме Боевики, Размер: 1.45 ГБ, Здоровье: 100%

Anonymous

0
13|1

26
116

25 дек 2013, 18:28

Anonymous Перейти к последнему сообщению

В этой теме нет новых непрочитанных сообщений. Скачать торрент Кровавый четверг / Thursday (1998) BDRip 720p

в форуме 720p | 1080p, Размер: 4.28 ГБ, Здоровье: 100%

Anonymous

0
16|3

29
116

25 дек 2013, 18:22

Anonymous Перейти к последнему сообщению

В этой теме нет новых непрочитанных сообщений. Скачать торрент Грабеж / Heist (Дэвид Мэмет / David Mamet) [2001, боевик, триллер, драма, криминал, HDTVRip-AVC]

в форуме Боевики, Размер: 2.45 ГБ, Здоровье: 100%

Anonymous

0
2|1

46
0

24 апр 2014, 14:08

Anonymous Перейти к последнему сообщению

В этой теме нет новых непрочитанных сообщений. Скачать торрент Проверен [iPhone] Герой - одиночка / Last Man Standing (Уолтер Хилл/ Walter Hill) [1996 г., Боевик/ Триллер/ Криминал /Драма, HDTVRip]

в форуме Фильмы для iPod, iPhone, iPad, Размер: 619.92 МБ, Здоровье: 100%

Гость

0
1|0

39
0

11 май 2015, 01:31

Гость Перейти к последнему сообщению

В этой теме нет новых непрочитанных сообщений. Скачать торрент Проверен Капитан Филлипс / Captain Phillips (Пол Гринграсс) [2013, США, триллер, драма, криминал, боевик, BDRip, 480p] Dub + Original + sub (rus, eng)

в форуме Фильмы для iPod, iPhone, iPad, Размер: 1.63 ГБ, Здоровье: 100%

Гость

0
12|4

56
1

18 май 2015, 10:54

Гость Перейти к последнему сообщению



Сейчас этот форум просматривают: нет зарегистрированных пользователей и гости: 1


Вы не можете начинать темы
Вы не можете отвечать на сообщения
Вы не можете редактировать свои сообщения
Вы не можете удалять свои сообщения
Вы не можете добавлять вложения

Перейти:  

!ВНИМАНИЕ!
 Ресурс не предоставляет электронные версии произведений, а занимается лишь коллекционированием и каталогизацией ссылок, присылаемых и публикуемых на форуме нашими читателями. Если вы являетесь правообладателем какого-либо представленного материала и не желаете чтобы ссылка на него находилась в нашем каталоге, свяжитесь с нами и мы незамедлительно удалим её. Файлы для обмена на трекере предоставлены пользователями сайта, и администрация не несёт ответственности за их содержание. Просьба не заливать файлы, защищенные авторскими правами, а также файлы нелегального содержания!