На всех торрентах на трекере установлена скидка на скачивание в размере 100 процентов(а).
 Возможность скачивания торрента НЕ зависит от ограничений при низком ратио, низком аплоаде, требуемом ратио или требуемом аплоаде.


Начать новую тему Ответить на тему
Статистика раздачи
Размер: 2.82 ГБ | Добавлен: 10 июл 2014, 22:22 | Скачали: 204
Сидеров: 4  [0 байт/сек]    Личеров: 0  [0 байт/сек]
Пред. тема | След. тема 

Автор
Сообщение

СообщениеДобавлено: 10 июл 2014, 22:22 

✦Название: Пуленепробиваемый монах
✦Оригинальное название: Bulletproof Monk
✦Год выпуска: 2003
✦Жанр: Фэнтези, боевик, комедия, комикс
✦Выпущено: США, Cub Five Productions, Flypaper Press, Lakeshore Entertainment

✦Режиссер: Пол Хантер

✦В ролях: Юнь-Фат Чоу, Шонн Уильям Скотт, Джейми Кинг, Карел Роден, Виктория Смерфит, Маркус Дж. Пирэ, Мако, Роджер Йуан, Шон Белл, Роб Арчер, Расселл Юэнь, Альберт Чунг, Керис Ан, Питер Снайдер


Монах - мастер боевых искусств, который охраняет могущественный древний свиток - таинственный артефакт, содержащий ключ к безграничной власти. Монаху нужно найти следующего хранителя свитка, и поиски приводят его в Америку. Согласно древнему пророчеству и к изумлению Монаха его преемником оказывается обаятельный хулиган по имени Кар. Пока Монах обучает Кара, как выполнять свою работу, этому невероятному дуэту приходится защищать свиток от одержимого жаждой власти человека, который гоняется за ним 60 лет. В суматохе невероятной акробатики, схваток с применением боевых искусств и остроумных шуток эта комическая странная парочка должна сделать всё, чтобы свиток не попал в руки злодея.



✦Качество: BDRip (AVC)
✦Видео: MPEG-4 AVC, 3000 Кбит/с, 1024x434
✦Аудио 1: АС3, 6 ch, 448 Кбит/с - дубляж
✦Аудио 2: АС3, 6 ch, 448 Кбит/с - оригинал

Format : Matroska
File size : 2.82 GiB
Duration : 1h 43mn
Overall bit rate : 3 895 Kbps
Encoded date : UTC 2011-03-11 16:45:24
Writing application : mkvmerge v3.2.0 ('Beginnings') built on Feb 12 2010 16:46:17
Writing library : libebml v0.7.9 + libmatroska v0.8.1

Video
ID : 1
Format : AVC
Format/Info : Advanced Video Codec
Format profile : High@L4.1
Format settings, CABAC : Yes
Format settings, ReFrames : 8 frames
Muxing mode : Container profile=Unknown@4.1
Codec ID : V_MPEG4/ISO/AVC
Duration : 1h 43mn
Bit rate : 2 922 Kbps
Nominal bit rate : 3 000 Kbps
Width : 1 024 pixels
Height : 434 pixels
Display aspect ratio : 2.35:1
Frame rate : 23.976 fps
Resolution : 24 bits
Colorimetry : 4:2:0
Scan type : Progressive
Bits/(Pixel*Frame) : 0.274
Stream size : 2.11 GiB (75%)
Writing library : x264 core 112 r1867 22bfd31
Encoding settings : cabac=1 / ref=8 / deblock=1:-1:-1 / analyse=0x3:0x133 / me=umh / subme=9 / psy=1 / psy_rd=1.00:0.40 / mixed_ref=1 / me_range=48 / chroma_me=1 / trellis=1 / 8x8dct=1 / cqm=0 / deadzone=21,11 / fast_pskip=0 / chroma_qp_offset=-4 / threads=1 / sliced_threads=0 / nr=0 / decimate=1 / interlaced=0 / constrained_intra=0 / bframes=9 / b_pyramid=2 / b_adapt=2 / b_bias=0 / direct=1 / weightb=1 / open_gop=0 / weightp=2 / keyint=240 / keyint_min=23 / scenecut=40 / intra_refresh=0 / rc_lookahead=80 / rc=2pass / mbtree=1 / bitrate=3000 / ratetol=1.0 / qcomp=0.60 / qpmin=10 / qpmax=51 / qpstep=4 / cplxblur=20.0 / qblur=0.5 / ip_ratio=1.40 / aq=1:1.00
Language : English

Audio #1
ID : 2
Format : AC-3
Format/Info : Audio Coding 3
Codec ID : A_AC3
Duration : 1h 43mn
Bit rate mode : Constant
Bit rate : 448 Kbps
Channel(s) : 6 channels
Channel positions : Front: L C R, Surround: L R, LFE
Sampling rate : 48.0 KHz
Stream size : 332 MiB (12%)
Language : Russian

Audio #2
ID : 3
Format : AC-3
Format/Info : Audio Coding 3
Codec ID : A_AC3
Duration : 1h 43mn
Bit rate mode : Constant
Bit rate : 448 Kbps
Channel(s) : 6 channels
Channel positions : Front: L C R, Surround: L R, LFE
Sampling rate : 48.0 KHz
Stream size : 332 MiB (12%)
Language : English

Text #1
ID : 4
Format : UTF-8
Codec ID : S_TEXT/UTF8
Codec ID/Info : UTF-8 Plain Text
Language : Russian

Text #2
ID : 5
Format : UTF-8
Codec ID : S_TEXT/UTF8
Codec ID/Info : UTF-8 Plain Text
Language : English
загрузка...
Правила, инструкции, FAQ!!!
Торрент  Добавлен [10 июл 2014, 22:22] Скачать торрент
Скачать торрент
[ Размер 14.66 КБ / Просмотров 7 ]

Статус
Проверен 
 
Размер  2.82 ГБ
Приватный: Нет (DHT включён)
.torrent скачан  204
Как залить торрент? | Как скачать Torrent? | Как смотреть и слушать онлайн?  


     Отправить личное сообщение
   
Страница 1 из 1
Показать сообщения за:  Поле сортировки  
Начать новую тему Ответить на тему

   Похожие торренты   Автор   Ответы   Просмотры   Последнее сообщение 
В этой теме нет новых непрочитанных сообщений. Скачать торрент Проверен Пуленепробиваемый монах / Bulletproof Monk (2003) BDRip

в форуме Боевики, Размер: 1.46 ГБ, Здоровье: 100%

Anonymous

0
15|0

29
502

10 июл 2014, 22:14

Anonymous Перейти к последнему сообщению

В этой теме нет новых непрочитанных сообщений. Скачать торрент Проверен Библиотека специалиста - Dan Cederholm / Дэн Седерхольм - Bulletproof Web Design / Пуленепробиваемый веб-дизайн (3-е изд.) [2012, PDF, RUS]

в форуме Веб-дизайн и программирование, Размер: 10.53 МБ, Здоровье: 100%

Anonymous

0
4|0

1
1

22 окт 2016, 11:08

Anonymous Перейти к последнему сообщению

В этой теме нет новых непрочитанных сообщений. Скачать торрент Проверен Robin Sharma / Робин Шарма - The Monk Who Sold His Ferrari / Монах который продал свой Феррари [1997, FB2/ePub/PDF, RUS]

в форуме Популярная психология, Размер: 2.67 МБ, Здоровье: 33%

Anonymous

0
1|3

12
1

09 сен 2016, 22:01

Anonymous Перейти к последнему сообщению

В этой теме нет новых непрочитанных сообщений. Скачать торрент Проверен [TR24][SA] Thelonious Monk - Thelonious Monk with John Coltrane - 1961, 2003 (Jazz)

в форуме Hi-Res stereo (Джаз и Блюз), Размер: 710.83 МБ, Здоровье: 0%

Anonymous

0
0|0

10
0

27 авг 2016, 13:17

Anonymous Перейти к последнему сообщению

В этой теме нет новых непрочитанных сообщений. Скачать торрент Проверен [SACD-R][OF] The Thelonious Monk Quartet - Monk's Dream - 1963/2015 (Jazz)

в форуме Hi-Res stereo (Джаз и Блюз), Размер: 1.77 ГБ, Здоровье: 100%

Anonymous

0
7|2

12
0

27 авг 2016, 14:09

Anonymous Перейти к последнему сообщению



Сейчас этот форум просматривают: нет зарегистрированных пользователей и гости: 1


Вы не можете начинать темы
Вы не можете отвечать на сообщения
Вы не можете редактировать свои сообщения
Вы не можете удалять свои сообщения
Вы не можете добавлять вложения

Перейти:  

!ВНИМАНИЕ!
 Ресурс не предоставляет электронные версии произведений, а занимается лишь коллекционированием и каталогизацией ссылок, присылаемых и публикуемых на форуме нашими читателями. Если вы являетесь правообладателем какого-либо представленного материала и не желаете чтобы ссылка на него находилась в нашем каталоге, свяжитесь с нами и мы незамедлительно удалим её. Файлы для обмена на трекере предоставлены пользователями сайта, и администрация не несёт ответственности за их содержание. Просьба не заливать файлы, защищенные авторскими правами, а также файлы нелегального содержания!