На всех торрентах на трекере установлена скидка на скачивание в размере 100 процентов(а).
 Возможность скачивания торрента НЕ зависит от ограничений при низком ратио, низком аплоаде, требуемом ратио или требуемом аплоаде.


Начать новую тему Ответить на тему
Статистика раздачи
Размер: 1.46 ГБ | Добавлен: 09 июл 2014, 07:48 | Скачали: 0
Сидеров: 7  [0 байт/сек]    Личеров: 3  [0 байт/сек]
Пред. тема | След. тема 

Автор
Сообщение

СообщениеДобавлено: 09 июл 2014, 07:48 

Киберджек 2: Битва за будущее / Fugitive Mind (1999) DVDRip

Год выпуска: 1999
Жанр: Боевик, Фантастика

Описание фильма:
Бывший полицейский — спецназовец Роберт Дин работает в транснациональной корпорации ГЕНКОМ и ведет самую обычную жизнь. Но внезапно его начинают преследовать странные, пугающие сны, полные сцен насилия. А однажды ночью в его дом врываются какие-то люди, но Роберту удается бежать.

Проникнув в здание корпорации и войдя в главный компьютер, он получает доступ к секретной информации и узнает, что корпорация ГЕНКОМ проводит генетические эксперименты. А сенатор Дэвис добивается их запрета. И Роберт, лишенный в результате одного из этих чудовищных экспериментов памяти и запрограммированный на убийство сенатора, становится пешкой в чужой игре.

Роберт должен выяснить, кто же он на самом деле, и помешать корпорации ГЕНКОМ выиграть затеянную ею битву за будущее…

Режиссер: Фред Олен Рэй
Актеры: Майкл Дудикофф, Хэзер Лэнгенкэмп, Мишель Грин, Дэвид Хедисон, Иан Огилви, Джадсон Ирни Скотт, Чик Веннера, Гэбриел Делл, Джон Путч, Бэрри Ньюман

Продолжительность: 01:30:01
Качество видео: DVDRip
Перевод: Многоголосый закадровый



Дата мировой премьеры: 14.09.1999

Видеокодек: Xvid
Битрейт видео: ~1859 kb/s
Размер кадра: 688 х 512
Аудиокодек: AC3
Битрейт аудио: 448 kb/s
Сэмпл: Скачать
Общее
Полное имя : G:\movies\Fugitive Mind.1999.RUS.DVDRip.XviD.AC3.avi
Формат : AVI
Формат/Информация : Audio Video Interleave
Размер файла : 1,46 Гбайт
Продолжительность : 1 ч. 30 м.
Общий поток : 2317 Кбит/сек
Программа кодирования : VirtualDubMod 1.5.10.2 (build 2540/release)
Библиотека кодирования : VirtualDubMod build 2540/release

Видео
Идентификатор : 0
Формат : MPEG-4 Visual
Профиль формата : Advanced Simple@L5
Параметр BVOP формата : 1
Параметр QPel формата : Нет
Параметр GMC формата : Без точки перехода
Параметр матрицы формата : Выборочная
Идентификатор кодека : XVID
Идентификатор кодека/Подсказка : XviD
Продолжительность : 1 ч. 30 м.
Битрейт : 1859 Кбит/сек
Ширина : 688 пикселей
Высота : 512 пикселей
Соотношение сторон : 4:3
Частота кадров : 25,000 кадров/сек
Цветовое пространство : YUV
Субдискретизация насыщенности : 4:2:0
Битовая глубина : 8 бит
Тип развёртки : Прогрессивная
Метод сжатия : С потерями
Бит/(Пиксели*Кадры) : 0.211
Размер потока : 1,17 Гбайт (80%)
Библиотека кодирования : XviD 65

Аудио
Идентификатор : 1
Формат : AC-3
Формат/Информация : Audio Coding 3
Расширение режима : CM (complete main)
Параметр Endianness формата : Big
Идентификатор кодека : 2000
Продолжительность : 1 ч. 30 м.
Вид битрейта : Постоянный
Битрейт : 448 Кбит/сек
Каналы : 6 каналов
Расположение каналов : Front: L C R, Side: L R, LFE
Частота : 48,0 КГц
Битовая глубина : 16 бит
Метод сжатия : С потерями
Размер потока : 288 Мбайт (19%)
Выравнивание : Разделение по промежуткам
Продолжительность промежутка : 40 мс. (1,00 видеокадр)
Время предзагрузки промежутка : 500 мс.
Скриншоты:
загрузка...
Правила, инструкции, FAQ!!!
Торрент  Добавлен [09 июл 2014, 07:48] Скачать торрент
Скачать торрент
[ Размер 15.41 КБ / Просмотров 22 ]

Статус
Проверен 
 
Размер  1.46 ГБ
Приватный: Нет (DHT включён)
.torrent скачан  0
Как залить торрент? | Как скачать Torrent? | Как смотреть и слушать онлайн?  


     Отправить личное сообщение
   
Страница 1 из 1
Показать сообщения за:  Поле сортировки  
Начать новую тему Ответить на тему

   Похожие торренты   Автор   Ответы   Просмотры   Последнее сообщение 
В этой теме нет новых непрочитанных сообщений. Скачать торрент Проверен (Heavy/Speed Metal) Voltax - Fugitive State Of Mind - 2010, MP3 (tracks), 320 kbps

в форуме Heavy, Power, Progressive (Metal), Размер: 75.86 МБ, Здоровье: 0%

Anonymous

0
0|0

0
0

09 окт 2016, 12:32

Anonymous Перейти к последнему сообщению

В этой теме нет новых непрочитанных сообщений. Скачать торрент Проверен Киберджек / Cyberjack (1995) DVDRip

в форуме Боевики, Размер: 1.46 ГБ, Здоровье: 100%

Anonymous

0
8|2

75
0

09 июл 2014, 07:45

Anonymous Перейти к последнему сообщению

В этой теме нет новых непрочитанных сообщений. Скачать торрент Проверен (Progressive rock, Psychedelic/Space Rock) The Spacious Mind - The Mind Of A Brother - 1999, FLAC (tracks+.cue), lossless

в форуме Progressive & Art-Rock, Размер: 561.66 МБ, Здоровье: 0%

Anonymous

0
0|0

1
0

31 авг 2016, 20:49

Anonymous Перейти к последнему сообщению

В этой теме нет новых непрочитанных сообщений. Скачать торрент Проверен АБВГДейка. Время настоящее, прошедшее, будущее (2007) DVDRip [H.264]

в форуме Развивающее Видео для детей, Размер: 479.6 МБ, Здоровье: 100%

Гость

0
3|1

6
0

30 ноя 2015, 23:50

Гость Перейти к последнему сообщению

В этой теме нет новых непрочитанных сообщений. Скачать торрент Проверен Битва за Москву (1985) DVDRip [H.264] [Реставрация]

в форуме Военные, Размер: 7 ГБ, Здоровье: 100%

Anonymous

0
14|1

214
4

05 июл 2014, 23:36

Anonymous Перейти к последнему сообщению



Сейчас этот форум просматривают: нет зарегистрированных пользователей и гости: 2


Вы не можете начинать темы
Вы не можете отвечать на сообщения
Вы не можете редактировать свои сообщения
Вы не можете удалять свои сообщения
Вы не можете добавлять вложения

Перейти:  

!ВНИМАНИЕ!
 Ресурс не предоставляет электронные версии произведений, а занимается лишь коллекционированием и каталогизацией ссылок, присылаемых и публикуемых на форуме нашими читателями. Если вы являетесь правообладателем какого-либо представленного материала и не желаете чтобы ссылка на него находилась в нашем каталоге, свяжитесь с нами и мы незамедлительно удалим её. Файлы для обмена на трекере предоставлены пользователями сайта, и администрация не несёт ответственности за их содержание. Просьба не заливать файлы, защищенные авторскими правами, а также файлы нелегального содержания!