На всех торрентах на трекере установлена скидка на скачивание в размере 100 процентов(а).
 Возможность скачивания торрента НЕ зависит от ограничений при низком ратио, низком аплоаде, требуемом ратио или требуемом аплоаде.


Начать новую тему Ответить на тему
Статистика раздачи
Размер: 1.46 ГБ | Добавлен: 09 июл 2014, 07:45 | Скачали: 0
Сидеров: 8  [0 байт/сек]    Личеров: 2  [0 байт/сек]
Пред. тема | След. тема 

Автор
Сообщение

СообщениеДобавлено: 09 июл 2014, 07:45 

Киберджек / Cyberjack (1995) DVDRip

Год выпуска: 1995
Жанр: Боевик, Фантастика

Описание фильма:
Еще один «крепкий орешек», на этот раз вступающий в сражение со злодеями-террористами в 21 веке, в научной лаборатории «Квантум», создавшей новый «безопасный» компьютерный Вирус с биологическим компонентом, который изменит будущее земной цивилизации. Бывший полицейский Ник Джеймс встает на пути киберджеков — преступников, похищающих новые технологии. Киберджеки убивают руководителя лаборатории, захватывают в заложники его дочь Алекс, с которой дружит Ник, и похищают вирус.

Только Ник, который ушел из полиции после смерти напарника, безжалостно убитого киберджеками, может остановить опаснейших преступников, которым обладание вирусом может дать поистине безграничную власть. Нику приходится вспомнить о своем прошлом «крутого полицейского» и предпринять отчаянную попытку спасти Алекс и, возможно, весь мир.

Режиссер: Роберт Ли
Актеры: Майкл Дудикофф, Суки Кайзер, Брайон Джеймс, Джон Кетберт, Джеймс Том, Топаз Хасфаль-Шу, Гарвин Кросс, Дин МакКензи, Дункан Фрайзер, Хиро Канагава

Продолжительность: 01:32:11
Качество видео: DVDRip
Перевод: Двуголосый закадровый



Дата мировой премьеры: 30.04.1995
Дата выхода DVD релиза: 09.04.2009

Видеокодек: Xvid
Битрейт видео: ~2 066 Kbps
Размер кадра: 704 х 528
Аудиокодек: AC3
Битрейт аудио: 192 Kbps
Сэмпл: Скачать
General
Полное имя : G:\movies\Cyberjack.1995.RUS.DVDRip.XviD.AC3.avi
Формат : AVI
Формат/Информация : Audio Video Interleave
Размер файла : 1.46 GiB
Продолжительность : 1h 32mn
Общий поток : 2 267 Kbps
Программа кодирования : VirtualDubMod 1.5.10.2 (build 2540/release)
Библиотека кодирования : VirtualDubMod build 2540/release

Video
Идентификатор : 0
Формат : MPEG-4 Visual
Профиль формата : Advanced Simple@L5
Параметр BVOP формата : 1
Параметр QPel формата : No
Параметр GMC формата : No warppoints
Параметр матрицы формата : Custom
Идентификатор кодека : XVID
Идентификатор кодека/Подсказка : XviD
Продолжительность : 1h 32mn
Битрейт : 2 066 Kbps
Ширина : 704 pixels
Высота : 528 pixels
Соотношение сторон : 4:3
Частота кадров : 25.000 fps
Цветовое пространство : YUV
Субдискретизация насыщенности : 4:2:0
Битовая глубина : 8 bits
Тип развёртки : Progressive
Метод сжатия : Lossy
Бит/(Пиксели*Кадры) : 0.222
Размер потока : 1.33 GiB (91%)
Библиотека кодирования : XviD 65

Audio
Идентификатор : 1
Формат : AC-3
Формат/Информация : Audio Coding 3
Расширение режима : CM (complete main)
Параметр Endianness формата : Big
Идентификатор кодека : 2000
Продолжительность : 1h 32mn
Вид битрейта : Constant
Битрейт : 192 Kbps
Каналы : 2 channels
Расположение каналов : Front: L R
Частота : 48.0 KHz
Битовая глубина : 16 bits
Метод сжатия : Lossy
Размер потока : 127 MiB (8%)
Выравнивание : Split accross interleaves
Продолжительность промежутка : 40 ms (1.00 video frame)
Время предзагрузки промежутка : 500 ms
Скриншоты:
загрузка...
Правила, инструкции, FAQ!!!
Торрент  Добавлен [09 июл 2014, 07:45] Скачать торрент
Скачать торрент
[ Размер 15.39 КБ / Просмотров 10 ]

Статус
Проверен 
 
Размер  1.46 ГБ
Приватный: Нет (DHT включён)
.torrent скачан  0
Как залить торрент? | Как скачать Torrent? | Как смотреть и слушать онлайн?  


     Отправить личное сообщение
   
Страница 1 из 1
Показать сообщения за:  Поле сортировки  
Начать новую тему Ответить на тему

   Похожие торренты   Автор   Ответы   Просмотры   Последнее сообщение 
В этой теме нет новых непрочитанных сообщений. Скачать торрент Проверен Киберджек 2: Битва за будущее / Fugitive Mind (1999) DVDRip

в форуме Боевики, Размер: 1.46 ГБ, Здоровье: 100%

Anonymous

0
7|3

111
0

09 июл 2014, 07:48

Anonymous Перейти к последнему сообщению

В этой теме нет новых непрочитанных сообщений. Скачать торрент Проверен (Hard Rock) Van Halen - Live In Pensacola, Florida 11.03.1995 (DVD) - 1995 (DVDRip), MP3, 192 kbps

в форуме Classic Rock & Hard Rock, Размер: 160.09 МБ, Здоровье: 0%

Anonymous

0
0|0

0
0

13 ноя 2016, 15:08

Anonymous Перейти к последнему сообщению

В этой теме нет новых непрочитанных сообщений. Скачать торрент Проверен (Hard Rock) Van Halen - Live From The Molson In Toronto, Canada August 1995 (DVD) - 1995 (DVDRip), MP3, 192 kbps

в форуме Classic Rock & Hard Rock, Размер: 134.39 МБ, Здоровье: 0%

Anonymous

0
0|0

0
0

13 ноя 2016, 15:08

Anonymous Перейти к последнему сообщению

В этой теме нет новых непрочитанных сообщений. Скачать торрент Проверен Сорванец / Le garçu (1995) DVDRip | P2

в форуме Драмы, Мелодрамы, Размер: 1.46 ГБ, Здоровье: 100%

Гость

0
18|8

58
23

02 апр 2016, 21:56

Гость Перейти к последнему сообщению

В этой теме нет новых непрочитанных сообщений. Скачать торрент Проверен Хайди / Heidi (1995) DVDRip

в форуме Зарубежные мультфильмы, Размер: 1.37 ГБ, Здоровье: 100%

Гость

0
16|2

205
5

13 апр 2015, 23:37

Гость Перейти к последнему сообщению



Сейчас этот форум просматривают: нет зарегистрированных пользователей и гости: 1


Вы не можете начинать темы
Вы не можете отвечать на сообщения
Вы не можете редактировать свои сообщения
Вы не можете удалять свои сообщения
Вы не можете добавлять вложения

Перейти:  

!ВНИМАНИЕ!
 Ресурс не предоставляет электронные версии произведений, а занимается лишь коллекционированием и каталогизацией ссылок, присылаемых и публикуемых на форуме нашими читателями. Если вы являетесь правообладателем какого-либо представленного материала и не желаете чтобы ссылка на него находилась в нашем каталоге, свяжитесь с нами и мы незамедлительно удалим её. Файлы для обмена на трекере предоставлены пользователями сайта, и администрация не несёт ответственности за их содержание. Просьба не заливать файлы, защищенные авторскими правами, а также файлы нелегального содержания!