На всех торрентах на трекере установлена скидка на скачивание в размере 100 процентов(а).
 Возможность скачивания торрента НЕ зависит от ограничений при низком ратио, низком аплоаде, требуемом ратио или требуемом аплоаде.


Начать новую тему Ответить на тему
Статистика раздачи
Размер: 1.45 ГБ | Добавлен: 28 июн 2014, 09:28 | Скачали: 141
Сидеров: 5  [0 байт/сек]    Личеров: 1  [0 байт/сек]
Пред. тема | След. тема 

Автор
Сообщение

СообщениеДобавлено: 28 июн 2014, 09:28 

Название: Бушидо-мен
Оригинальное название: Bushido Man
Год выхода: 2013
Жанр: Боевик
Режиссер: Таканори Цудзимото

В ролях: Мицуки Кога, Йошиюки Ямагути, Масанори Мимото, Кэнтаро Симадзу, Кадзуки Цудзимото, Масаки Сузумура, Наохиро Кавамото, Марк Валков

О фильме:
Главный герой Торамару хочет освоить все виды боевых искусств, для этого ему нужно собрать нужные манускрипыты и победить величайших войнов со всей Японии!



Страна: Япония, Two Guns Film
Продолжительность: 01:27:46
Перевод: Любительский (одноголосый) [den904]
Дата релиза: 27.06.2014


Кодек: H.264
Качество: HDRip (AVC)
Видео: MPEG-4 AVC, 2182 Кбит/с, 1024x576
Звук: AC3, 2 ch, 192 Кбит/с

Общее
Уникальный идентификатор : 236798666641129449932508980414909786660 (0xB225C3A858ADA8A690CCECAC04042A24)
Полное имя : D:фильмыBushido.men. 2013.x264.HDRip.(AVC).ExKinoRay.mkv
Формат : Matroska
Размер файла : 1,45 Гбайт
Продолжительность : 1 ч. 27 м.
Общий поток : 2370 Кбит/сек
Название фильма : Bushido.men.2013.x264.HDRip.(AVC).ExKinoRay
Дата кодирования : UTC 2014-06-27 15:57:36
Программа кодирования : mkvmerge v4.0.0 ('The Stars were mine') сборка от Jun 6 2010 16:18:42
Библиотека кодирования : libebml v1.0.0 + libmatroska v1.0.0

Видео
Идентификатор : 1
Формат : AVC
Формат/Информация : Advanced Video Codec
Профиль формата : High@L4.1
Параметр CABAC формата : Да
Параметр ReFrames формата : 8 кадров
Идентификатор кодека : V_MPEG4/ISO/AVC
Продолжительность : 1 ч. 27 м.
Битрейт : 2182 Кбит/сек
Ширина : 1024 пикс.
Высота : 576 пикс.
Соотношение сторон : 16:9
Частота кадров : 23,976 кадр/сек
Цветовое пространство : YUV
Подвыборка цветности : 4:2:0
Битовая глубина : 8 бит
Тип развёртки : Прогрессивная
Бит/(Пиксели*Кадры) : 0.154
Размер потока : 1,31 Гбайт (90%)
Заголовок : Rip by Enigma-Vladislav71
Библиотека кодирования : x264 core 125 r2208 d9d2288
Настройки программы : cabac=1 / ref=8 / deblock=1:-2:-2 / analyse=0x3:0x133 / me=umh / subme=11 / psy=1 / psy_rd=1.00:0.00 / mixed_ref=1 / me_range=48 / chroma_me=1 / trellis=2 / 8x8dct=1 / cqm=0 / deadzone=21,11 / fast_pskip=0 / chroma_qp_offset=-2 / threads=3 / lookahead_threads=1 / sliced_threads=0 / nr=0 / decimate=0 / interlaced=0 / bluray_compat=0 / constrained_intra=0 / bframes=8 / b_pyramid=2 / b_adapt=2 / b_bias=0 / direct=3 / weightb=1 / open_gop=0 / weightp=2 / keyint=240 / keyint_min=23 / scenecut=40 / intra_refresh=0 / rc=2pass / mbtree=0 / bitrate=2182 / ratetol=1.0 / qcomp=0.60 / qpmin=10 / qpmax=51 / qpstep=4 / cplxblur=20.0 / qblur=0.5 / ip_ratio=1.40 / pb_ratio=1.30 / aq=1:1.00
Язык : English

Аудио
Идентификатор : 2
Формат : AC-3
Формат/Информация : Audio Coding 3
Расширение режима : CM (complete main)
Идентификатор кодека : A_AC3
Продолжительность : 1 ч. 27 м.
Вид битрейта : Постоянный
Битрейт : 192 Кбит/сек
Каналы : 2 канала
Расположение каналов : Front: L R
Частота : 48,0 КГц
Битовая глубина : 16 бит
Метод сжатия : С потерями
Размер потока : 121 Мбайт (8%)
Язык : Russian


загрузка...
Правила, инструкции, FAQ!!!
Торрент  Добавлен [28 июн 2014, 09:28] Скачать торрент
Скачать торрент
[ Размер 15.19 КБ / Просмотров 4 ]

Статус
Проверен 
 
Размер  1.45 ГБ
Приватный: Нет (DHT включён)
.torrent скачан  141
Как залить торрент? | Как скачать Torrent? | Как смотреть и слушать онлайн?  


     Отправить личное сообщение
   
Страница 1 из 1
Показать сообщения за:  Поле сортировки  
Начать новую тему Ответить на тему

   Похожие торренты   Автор   Ответы   Просмотры   Последнее сообщение 
В этой теме нет новых непрочитанных сообщений. Скачать торрент Проверен (Power Metal) [7"] [24/96] Hammerfall - Bushido - 2014, FLAC (tracks)

в форуме Зарубежный рок (оцифровки), Размер: 201.12 МБ, Здоровье: 0%

Anonymous

0
0|0

1
0

25 авг 2016, 18:07

Anonymous Перейти к последнему сообщению

В этой теме нет новых непрочитанных сообщений. Скачать торрент Ку! Кин-дза-дза (2013) HDRip

в форуме Отечественные мультфильмы, Размер: 697.55 МБ, Здоровье: 100%

Anonymous

0
13|1

102
0

02 фев 2014, 21:06

Anonymous Перейти к последнему сообщению

В этой теме нет новых непрочитанных сообщений. Скачать торрент Ча-ча-ча / Cha cha cha (2013) HDRip | L1

в форуме Триллеры, Размер: 1.1 ГБ, Здоровье: 0%

Anonymous

0
0|0

84
0

04 янв 2014, 13:06

Anonymous Перейти к последнему сообщению

В этой теме нет новых непрочитанных сообщений. Скачать торрент Ку! Кин-дза-дза (2013) HDRip

в форуме Отечественные мультфильмы, Размер: 1.37 ГБ, Здоровье: 100%

Anonymous

0
94|1

99
0

02 фев 2014, 21:06

Anonymous Перейти к последнему сообщению

В этой теме нет новых непрочитанных сообщений. Скачать торрент Она / Her (2013) HDRip

в форуме Драмы, Мелодрамы, Размер: 1.45 ГБ, Здоровье: 100%

Anonymous

0
17|0

70
98

04 май 2014, 09:23

Anonymous Перейти к последнему сообщению



Сейчас этот форум просматривают: нет зарегистрированных пользователей и гости: 2


Вы не можете начинать темы
Вы не можете отвечать на сообщения
Вы не можете редактировать свои сообщения
Вы не можете удалять свои сообщения
Вы не можете добавлять вложения

Перейти:  

!ВНИМАНИЕ!
 Ресурс не предоставляет электронные версии произведений, а занимается лишь коллекционированием и каталогизацией ссылок, присылаемых и публикуемых на форуме нашими читателями. Если вы являетесь правообладателем какого-либо представленного материала и не желаете чтобы ссылка на него находилась в нашем каталоге, свяжитесь с нами и мы незамедлительно удалим её. Файлы для обмена на трекере предоставлены пользователями сайта, и администрация не несёт ответственности за их содержание. Просьба не заливать файлы, защищенные авторскими правами, а также файлы нелегального содержания!