На всех торрентах на трекере установлена скидка на скачивание в размере 100 процентов(а).
 Возможность скачивания торрента НЕ зависит от ограничений при низком ратио, низком аплоаде, требуемом ратио или требуемом аплоаде.


Начать новую тему Ответить на тему
Статистика раздачи
Размер: 745.51 МБ | Добавлен: 26 май 2014, 18:24 | Скачали: 1
Сидеров: 6  [0 байт/сек]    Личеров: 2  [0 байт/сек]
Пред. тема | След. тема 

Автор
Сообщение

СообщениеДобавлено: 26 май 2014, 18:24 

Страна: США
Производство: TriStar Pictures, TriStar Television, Village Roadshow Pictures

Жанр: боевик, военный
Год выпуска: 1995
Продолжительность: 1:46:00

Перевод: Профессиональный (многоголосый закадровый) НТВ+
Оригинальная аудиодорожка: нет
Cубтитры: нет

Режиссер: Брайан Тренчард-Смит / Brian Trenchard-Smith

В ролях:
Джеймс Белуши /James Belushi, Элан Дэвид Ли, Саймон Уэстэуэй /Simon Westaway, Марк Ли /Mark Lee, Майкл Мэсси /Michael Massee, Роберт Уиздом /Robert Wisdom, Анджело Д'Анджело, Пол Эмпсон...

Описание:
Северная Африка, июнь 1942 года. После сражений с армией генерала Роммеля, от танкового батальона, в котором воюет сержант американской армии Джо Ганн, остается только одна машина. Подобрав по пути несколько солдат Союзнической армии, Ганн направляет свой танк в жгучие сахарские пески в надежде отыскать воду. Найдя полупересохший колодец, они утоляют жажду и наполняют фляги. А тем временем по их следу идет изнемогающий от жажды немецкий батальон. И Ганн решает вступить в бой…





Исходник: DVD5 R2
Тип релиза: DVDRip
Контейнер: AVI

Видео: 576x432 (4:3), 23,976 fps, XviD ~ 846 kbps avg, 0.142 bit/pixel
Аудио: 48 kHz, MP3 2.0, 128 kbps

Раздача от:
Общее
Полное имя : Sahara.1995.DVDRip_[New-team]_by_AVP_Studio.avi
Формат : AVI
Формат/Информация : Audio Video Interleave
Размер файла : 746 Мбайт
Продолжительность : 1 ч. 46 м.
Общий поток : 983 Кбит/сек
Программа кодирования : VirtualDubModRus 1.5.10.2 (build 2542/release)
Библиотека кодирования : VirtualDubMod build 2542/release

Видео
Идентификатор : 0
Формат : MPEG-4 Visual
Профиль формата : Advanced Simple@L5
Параметр BVOP формата : 1
Параметр QPel формата : Нет
Параметр GMC формата : Без точки перехода
Параметр матрицы формата : Выборочная
Идентификатор кодека : XVID
Идентификатор кодека/Подсказка : XviD
Продолжительность : 1 ч. 46 м.
Битрейт : 846 Кбит/сек
Ширина : 576 пикселей
Высота : 432 пикселя
Соотношение сторон : 4:3
Частота кадров : 23,976 кадра/сек
Цветовое пространство : YUV
Субдискретизация насыщенности : 4:2:0
Битовая глубина : 8 бит
Тип развёртки : Прогрессивная
Метод сжатия : С потерями
Бит/(Пиксели*Кадры) : 0.142
Размер потока : 641 Мбайт (86%)
Библиотека кодирования : XviD 73

Аудио
Идентификатор : 1
Формат : MPEG Audio
Версия формата : Version 1
Профиль формата : Layer 3
Идентификатор кодека : 55
Идентификатор кодека/Подсказка : MP3
Продолжительность : 1 ч. 46 м.
Вид битрейта : Постоянный
Битрейт : 128 Кбит/сек
Каналы : 2 канала
Частота : 48,0 КГц
Метод сжатия : С потерями
Размер потока : 97,1 Мбайт (13%)
Выравнивание : Соединение по промежуткам
Продолжительность промежутка : 42 мс. (1,00 видеокадр)
Время предзагрузки промежутка : 504 мс.
Библиотека кодирования : LAME3.99r
Настройки программы : -m s -V 4 -q 2 -lowpass 17 -b 128


загрузка...
Правила, инструкции, FAQ!!!
Торрент  Добавлен [26 май 2014, 18:24] Скачать торрент
Скачать торрент
[ Размер 15.26 КБ / Просмотров 6 ]

Статус
Проверен 
 
Размер  745.51 МБ
Приватный: Нет (DHT включён)
.torrent скачан  1
Как залить торрент? | Как скачать Torrent? | Как смотреть и слушать онлайн?  


     Отправить личное сообщение
   
Страница 1 из 1
Показать сообщения за:  Поле сортировки  
Начать новую тему Ответить на тему

   Похожие торренты   Автор   Ответы   Просмотры   Последнее сообщение 
В этой теме нет новых непрочитанных сообщений. Скачать торрент Проверен Сахара / Sahara (Брек Эйснер / Breck Eisner) [2005, боевик, комедия, приключения, BDRip, 480p] DUB, Original + sub (rus, eng)

в форуме Фильмы для iPod, iPhone, iPad, Размер: 1.62 ГБ, Здоровье: 100%

Гость

0
10|3

37
0

18 май 2015, 10:50

Гость Перейти к последнему сообщению

В этой теме нет новых непрочитанных сообщений. Скачать торрент Проверен (Melodic Rock | AOR) Sahara (Sweden) - Sahara - 2001, MP3 (tracks), 320 kbps

в форуме AOR (Melodic Hard Rock, Arena rock), Размер: 131.37 МБ, Здоровье: 0%

Anonymous

0
0|0

10
1

08 окт 2016, 10:53

Anonymous Перейти к последнему сообщению

В этой теме нет новых непрочитанных сообщений. Скачать торрент Проверен Джейкоб Тейтельбаум, Кристл Фидлер | Без сахара. Научно обоснованная и проверенная программа избавления от сахара в своем рационе (2015) [EPUB]

в форуме Нетрадиционная медицина, Размер: 1.1 МБ, Здоровье: 100%

Anonymous

0
777|7

352
38

23 ноя 2015, 22:15

Anonymous Перейти к последнему сообщению

В этой теме нет новых непрочитанных сообщений. Скачать торрент Проверен (Hard Rock/Heavy Metal) Sahara Steel - Sahara Steel - 2001, MP3, 320 kbps

в форуме Classic Rock & Hard Rock, Размер: 105.38 МБ, Здоровье: 0%

Anonymous

0
0|0

3
0

13 ноя 2016, 21:17

Anonymous Перейти к последнему сообщению

В этой теме нет новых непрочитанных сообщений. Скачать торрент Проверен (Melodic Rock | AOR) Sahara Snow - Sahara Snow - 1997, MP3, 320 kbps

в форуме AOR (Melodic Hard Rock, Arena rock), Размер: 125.17 МБ, Здоровье: 0%

Anonymous

0
0|0

8
1

08 окт 2016, 11:00

Anonymous Перейти к последнему сообщению



Сейчас этот форум просматривают: нет зарегистрированных пользователей и гости: 3


Вы не можете начинать темы
Вы не можете отвечать на сообщения
Вы не можете редактировать свои сообщения
Вы не можете удалять свои сообщения
Вы не можете добавлять вложения

Перейти:  

!ВНИМАНИЕ!
 Ресурс не предоставляет электронные версии произведений, а занимается лишь коллекционированием и каталогизацией ссылок, присылаемых и публикуемых на форуме нашими читателями. Если вы являетесь правообладателем какого-либо представленного материала и не желаете чтобы ссылка на него находилась в нашем каталоге, свяжитесь с нами и мы незамедлительно удалим её. Файлы для обмена на трекере предоставлены пользователями сайта, и администрация не несёт ответственности за их содержание. Просьба не заливать файлы, защищенные авторскими правами, а также файлы нелегального содержания!