На всех торрентах на трекере установлена скидка на скачивание в размере 100 процентов(а).
 Возможность скачивания торрента НЕ зависит от ограничений при низком ратио, низком аплоаде, требуемом ратио или требуемом аплоаде.


Начать новую тему Ответить на тему
Статистика раздачи
Размер: 1.37 ГБ | Добавлен: 18 май 2014, 09:50 | Скачали: 0
Сидеров: 56  [0 байт/сек]    Личеров: 19  [0 байт/сек]
Пред. тема | След. тема 

Автор
Сообщение

СообщениеДобавлено: 18 май 2014, 09:50 

Команда восемь: В тылу врага / Seal Team Eight: Behind Enemy Lines

Год выпуска: 2014
Страна: США
Жанр: Боевик, Военный
Продолжительность: 01:37:39
Перевод: Профессиональный (многоголосный) [iTunes]
Субтитры: нет

Режиссер: Роэль Рейн / Roel Reiné

В ролях: Том Сайзмор, Лэнгли Кирквуд, Таня ван Граан, Лекс Шрэпнел, Юджин Хумбанйива, Бонни Ли Буман, Орели Мерьель, Дилан Эди, Дэррон Каллиган, Энтони Осейеми

Описание: Команда Восемь должна бороться далеко в Африке, на секретном урановом руднике и помешать своему опасному врагу провезти контрабандой опасное оружие за границу.

http://multi-up.com/966591

Качество: HDRip
Формат: AVI
Видео кодек: XviD
Аудио кодек: AC3
Видео: XviD, 720x400, 23.976 fps, ~1803 Kbit/s
Аудио: AC3, 48 KHz, 192 kb/s (2 ch)

Скриншоты





MI
Формат : AVI
Формат/Информация : Audio Video Interleave
Размер файла : 1,37 Гбайт
Продолжительность : 1 ч. 37 м.
Общий поток : 2005 Кбит/сек
Программа кодирования : VirtualDubMod 1.5.10.2 (build 2540/release)
Библиотека кодирования : VirtualDubMod build 2540/release

Видео
Идентификатор : 0
Формат : MPEG-4 Visual
Профиль формата : Advanced Simple@L5
Параметр BVOP формата : 2
Параметр QPel формата : Нет
Параметр GMC формата : Без точки перехода
Параметр матрицы формата : Выборочная
Идентификатор кодека : XVID
Идентификатор кодека/Подсказка : XviD
Продолжительность : 1 ч. 37 м.
Битрейт : 1803 Кбит/сек
Ширина : 720 пикселей
Высота : 400 пикселей
Соотношение сторон : 16:9
Частота кадров : 23,976 кадра/сек
Цветовое пространство : YUV
Субдискретизация насыщенности : 4:2:0
Битовая глубина : 8 бит
Тип развёртки : Прогрессивная
Метод сжатия : С потерями
Бит/(Пиксели*Кадры) : 0.261
Размер потока : 1,23 Гбайт (90%)
Библиотека кодирования : XviD 1.2.1 (UTC 2008-12-04)

Аудио
Идентификатор : 1
Формат : AC-3
Формат/Информация : Audio Coding 3
Расширение режима : CM (complete main)
Параметр Endianness формата : Big
Идентификатор кодека : 2000
Продолжительность : 1 ч. 37 м.
Вид битрейта : Постоянный
Битрейт : 192 Кбит/сек
Каналы : 2 канала
Расположение каналов : Front: L R
Частота : 48,0 КГц
Битовая глубина : 16 бит
Метод сжатия : С потерями
Размер потока : 134 Мбайт (10%)
Выравнивание : Разделение по промежуткам
Продолжительность промежутка : 42 мс. (1,00 видеокадр)
Время предзагрузки промежутка : 500 мс.
загрузка...
Правила, инструкции, FAQ!!!
Торрент  Добавлен [18 май 2014, 09:50] Скачать торрент
Скачать торрент
[ Размер 14.2 КБ / Просмотров 7 ]

Статус  
 
Размер  1.37 ГБ
Приватный: Нет (DHT включён)
.torrent скачан  0
Как залить торрент? | Как скачать Torrent? | Как смотреть и слушать онлайн?  


     Отправить личное сообщение
   
Страница 1 из 1
Показать сообщения за:  Поле сортировки  
Начать новую тему Ответить на тему

   Похожие торренты   Автор   Ответы   Просмотры   Последнее сообщение 
В этой теме нет новых непрочитанных сообщений. Скачать торрент В тылу врага 3: Колумбия / Behind Enemy Lines: Colombia (2009) HDTVRip

в форуме Боевики, Размер: 1.37 ГБ, Здоровье: 100%

Anonymous

0
10|0

41
274

21 фев 2014, 17:47

Anonymous Перейти к последнему сообщению

В этой теме нет новых непрочитанных сообщений. Скачать торрент В тылу врага: Штурм 2 / Men of War: Assault Squad 2 (2014) PC | Steam-Rip от Brick

в форуме Стратегии, Размер: 2.3 ГБ, Здоровье: 100%

Anonymous

0
1|0

77
0

20 мар 2014, 07:36

Anonymous Перейти к последнему сообщению

В этой теме нет новых непрочитанных сообщений. Скачать торрент В тылу врага: Штурм 2 / Men of War: Assault Squad 2 (2014) PC | RePack от Brick

в форуме Стратегии, Размер: 1.41 ГБ, Здоровье: 100%

Anonymous

0
2|0

77
4

20 мар 2014, 07:33

Anonymous Перейти к последнему сообщению

В этой теме нет новых непрочитанных сообщений. Скачать торрент Проверен [iPod] Команда «А» / The A-Team (Джо Карнахан / Joe Carnahan) [2010 г., боевик, триллер, комедия, DVDRip]

в форуме Фильмы для iPod, iPhone, iPad, Размер: 525.07 МБ, Здоровье: 100%

Anonymous

0
1|0

28
0

14 май 2015, 00:25

Anonymous Перейти к последнему сообщению

В этой теме нет новых непрочитанных сообщений. Скачать торрент Проверен Александр Маркин | Чапаев в тылу врага и на фронте любви [2004] [MP3]

в форуме Сатира, юмор, Размер: 458.48 МБ, Здоровье: ???%

Anonymous

0
0|7

16
0

24 сен 2015, 20:10

Anonymous Перейти к последнему сообщению



Сейчас этот форум просматривают: нет зарегистрированных пользователей и гости: 1


Вы не можете начинать темы
Вы не можете отвечать на сообщения
Вы не можете редактировать свои сообщения
Вы не можете удалять свои сообщения
Вы не можете добавлять вложения

Перейти:  

!ВНИМАНИЕ!
 Ресурс не предоставляет электронные версии произведений, а занимается лишь коллекционированием и каталогизацией ссылок, присылаемых и публикуемых на форуме нашими читателями. Если вы являетесь правообладателем какого-либо представленного материала и не желаете чтобы ссылка на него находилась в нашем каталоге, свяжитесь с нами и мы незамедлительно удалим её. Файлы для обмена на трекере предоставлены пользователями сайта, и администрация не несёт ответственности за их содержание. Просьба не заливать файлы, защищенные авторскими правами, а также файлы нелегального содержания!