На всех торрентах на трекере установлена скидка на скачивание в размере 100 процентов(а).
 Возможность скачивания торрента НЕ зависит от ограничений при низком ратио, низком аплоаде, требуемом ратио или требуемом аплоаде.


Начать новую тему Ответить на тему
Статистика раздачи
Размер: 1.37 ГБ | Добавлен: 17 май 2014, 20:08 | Скачали: 0
Сидеров: 48  [0 байт/сек]    Личеров: 16  [0 байт/сек]
Пред. тема | След. тема 

Автор
Сообщение

СообщениеДобавлено: 17 май 2014, 20:08 

Двойной КОПец / Cop Out

Страна: США (New Line Home Video)
Жанр: боевик, комедия, криминал
Год выпуска: 2010
Продолжительность: 01:47:30

Перевод: Дмитрий Пучков (Goblin)
Озвучка: Одноголосый закадровый WOLRONE
Cубтитры: нет
Режиссер: Кевин Смит / Kevin Smith

В ролях: Брюс Уиллис, Трэйси Морган, Хуан Карлос Хернандез, Кори Фернандез, Ана Де Ла Регуера, Джейсон Харт, Джефф Лима, Шон Каллен, Кевин Поллак, Адам Броди, Мишель Трахтенберг, Джейсон Ли, Шонн Уильям Скотт.

Описание: Описание: История двух давних напарников — нью-йоркских полицейских, занятых поисками очень редкой и чертовски дорогой бейсбольной карточки, украденной у одного из них.
Джимми, всю жизнь проработавший в полиции, возлагал на пропавшую карточку все свои надежды, так как только с помощью нее он мог бы оплатить предстоящую свадьбу дочери, а Пол, его так называемый «напарник в борьбе с преступностью», столь зацикливается на предполагаемой неверности своей жены, что ему становится уже непросто отслеживать пропажу.

Описание от Гоблина: Фильм - смешная комедия с Брюсом Уиллисом в главной роли, режиссёр - Кевин Смит. Присутствует негритянский юмор, выражаются все богато.

Качество видео: BDRip
Формат видео: AVI

Видео: 720x304 (2.37:1), 23.976 fps, XviD build 50 ~1554 kbps avg, 0.30 bit/pixel
Аудио: MP3, 256 Kbps, 44.1 KHz, 2 channels

Сэмпл: http://multi-up.com/725928



Присутствует ненормативная лексика


MediaInfo
General
Format : AVI
Format/Info : Audio Video Interleave
File size : 1.37 GiB
Duration : 1h 47mn
Overall bit rate : 1 819 Kbps
Movie name : Cop.Out.2010.AVO.Wolrone-Goblin
Director : smallz
Writing application : VirtualDubMod 1.5.10.2 (build 2540/release)
Writing library : VirtualDubMod build 2540/release

Video
ID : 0
Format : MPEG-4 Visual
Format profile : Advanced Simple@L5
Format settings, BVOP : 1
Format settings, QPel : No
Format settings, GMC : No warppoints
Format settings, Matrix : Custom
Codec ID : XVID
Codec ID/Hint : XviD
Duration : 1h 47mn
Bit rate : 1 554 Kbps
Width : 720 pixels
Height : 304 pixels
Display aspect ratio : 2.35:1
Frame rate : 23.976 fps
Color space : YUV
Chroma subsampling : 4:2:0
Bit depth : 8 bits
Scan type : Progressive
Compression mode : Lossy
Bits/(Pixel*Frame) : 0.296
Stream size : 1.17 GiB (85%)
Writing library : XviD 1.2.1 (UTC 2008-12-04)

Audio
ID : 1
Format : MPEG Audio
Format version : Version 1
Format profile : Layer 3
Mode : Joint stereo
Codec ID : 55
Codec ID/Hint : MP3
Duration : 1h 47mn
Bit rate mode : Constant
Bit rate : 256 Kbps
Channel(s) : 2 channels
Sampling rate : 44.1 KHz
Compression mode : Lossy
Stream size : 197 MiB (14%)
Alignment : Aligned on interleaves
Interleave, duration : 42 ms (1.00 video frame)
Interleave, preload duration : 522 ms


Скриншоты
загрузка...
Правила, инструкции, FAQ!!!
Торрент  Добавлен [17 май 2014, 20:08] Скачать торрент
Скачать торрент
[ Размер 14.27 КБ / Просмотров 9 ]

Статус  
 
Размер  1.37 ГБ
Приватный: Нет (DHT включён)
.torrent скачан  0
Как залить торрент? | Как скачать Torrent? | Как смотреть и слушать онлайн?  


     Отправить личное сообщение
   
Страница 1 из 1
Показать сообщения за:  Поле сортировки  
Начать новую тему Ответить на тему

   Похожие торренты   Автор   Ответы   Просмотры   Последнее сообщение 
В этой теме нет новых непрочитанных сообщений. Скачать торрент Двойной КОПец / Крепкие Орешки / Cop Out (Кевин Смит / Kevin Smith) [2010, США, Боевик, комедия, криминал, BDRip] AVO Гаврилов

в форуме Боевики, Размер: 1.74 ГБ, Здоровье: 100%

Anonymous

0
2|1

40
0

17 май 2014, 20:08

Anonymous Перейти к последнему сообщению

В этой теме нет новых непрочитанных сообщений. Скачать торрент Джей и молчаливый Боб наносят ответный удар / Jay and Silent Bob Strike Back (Кевин Смит / Kevin Smith) [2001 г., пародийная комедия, мелодрама, приключения, BDRip-AVC] Dub

в форуме Комедии, Размер: 2.16 ГБ, Здоровье: 100%

Anonymous

0
37|12

64
0

22 апр 2014, 11:50

Anonymous Перейти к последнему сообщению

В этой теме нет новых непрочитанных сообщений. Скачать торрент Клерки 2 / Clerks II (Кевин Смит / Kevin Smith) [2006 г., комедия, HD-DVDRip] dub

в форуме Комедии, Размер: 1.46 ГБ, Здоровье: 0%

Anonymous

0
0|0

48
0

19 фев 2014, 11:43

Anonymous Перейти к последнему сообщению

В этой теме нет новых непрочитанных сообщений. Скачать торрент Проверен [iPhone] Догма / Dogma (Кевин Смит / Kevin Smith) [1999 г., Фэнтези, Комедия, HDRip, 320p]

в форуме Фильмы для iPod, iPhone, iPad, Размер: 1.15 ГБ, Здоровье: 100%

Гость

0
14|5

37
0

11 май 2015, 01:30

Гость Перейти к последнему сообщению

В этой теме нет новых непрочитанных сообщений. Скачать торрент Зак и Мири снимают порно / Zack and Miri Make a Porno (Кевин Смит / Kevin Smith) [2008 г., Комедия, мелодрама, HDRip-AVC]

в форуме Комедии, Размер: 2.04 ГБ, Здоровье: 100%

Anonymous

0
7|2

45
0

14 апр 2014, 09:28

Anonymous Перейти к последнему сообщению



Сейчас этот форум просматривают: нет зарегистрированных пользователей и гости: 1


Вы не можете начинать темы
Вы не можете отвечать на сообщения
Вы не можете редактировать свои сообщения
Вы не можете удалять свои сообщения
Вы не можете добавлять вложения

Перейти:  

!ВНИМАНИЕ!
 Ресурс не предоставляет электронные версии произведений, а занимается лишь коллекционированием и каталогизацией ссылок, присылаемых и публикуемых на форуме нашими читателями. Если вы являетесь правообладателем какого-либо представленного материала и не желаете чтобы ссылка на него находилась в нашем каталоге, свяжитесь с нами и мы незамедлительно удалим её. Файлы для обмена на трекере предоставлены пользователями сайта, и администрация не несёт ответственности за их содержание. Просьба не заливать файлы, защищенные авторскими правами, а также файлы нелегального содержания!