На всех торрентах на трекере установлена скидка на скачивание в размере 100 процентов(а).
 Возможность скачивания торрента НЕ зависит от ограничений при низком ратио, низком аплоаде, требуемом ратио или требуемом аплоаде.


Начать новую тему Ответить на тему
Статистика раздачи
Размер: 744.8 МБ | Добавлен: 16 май 2014, 00:25 | Скачали: 0
Сидеров: 56  [0 байт/сек]    Личеров: 19  [0 байт/сек]
Пред. тема | След. тема 

Автор
Сообщение

СообщениеДобавлено: 16 май 2014, 00:25 

Джек Райан: Теория хаоса / Jack Ryan: Shadow Recruit

«Главное оружие – интеллект»
Страна: США, Россия
Жанр: боевик, триллер, детектив
Год выпуска: 2014
Продолжительность: 01:45:48
Перевод: Профессиональный (дублированный)
iTunes Russia
Cубтитры: нет
Оригинальная аудиодорожка: нет
Режиссер:
Кеннет Брана / Kenneth Branagh
В ролях:
Крис Пайн, Кира Найтли, Кеннет Брэна, Кевин Костнер, Алек Утгофф, Джемма Чан, Петер Андерссон, Елена Великанова, Нонсо Анози, Колм Фиор
Описание:
Рядовой аналитик ЦРУ Джек Райан приезжает в Москву, чтобы решить простую задачу: ему нужно проверить операции компании, принадлежащей миллиардеру Виктору Черевину. Но все усложняется, когда Райана пытаются убить. Теперь он вынужден защищаться с оружием в руках, вспоминая армейские навыки и неожиданно для себя оказываясь в роли настоящего спецагента. На помощь Джеку приходят маститый офицер спецслужб Харпер и внезапно оказавшаяся в Москве супруга Кэти. Но облегчит ли это миссию, которую теперь предстоит выполнить Райану, — предотвратить международный заговор, грозящий погрузить весь мир в хаос?
Сэмпл | КиноПоиск | IMDb
Качество видео: BDRip | исх. [ Jack Ryan: Shadow Recruit (2014) 1080p BD-Remux.HDClub]
Формат видео: AVI
Видео: 720x304 (2.35:1), 23.976 fps, XviD build 65 ~849 kbps avg, 0.162 bit/pixel
Аудио: 48.0 kHz, MPEG Layer 3, 2 ch, ~128.00 kbps avg | Dub
MediaInfo
Общее
Полное имя : A:\Фильмы\Jack.Ryan.Shadow.Recruit.2014.BDRip.XviD.745Mb.mp3.avi
Формат : AVI
Формат/Информация : Audio Video Interleave
Размер файла : 745 Мбайт
Продолжительность : 1 ч. 45 м.
Общий поток : 987 Кбит/сек
Программа кодирования : VirtualDubMod 1.5.10.2 (build 2540/release)
Библиотека кодирования : VirtualDubMod build 2540/release

Видео
Идентификатор : 0
Формат : MPEG-4 Visual
Профиль формата : Advanced Simple@L5
Параметр BVOP формата : 1
Параметр QPel формата : Нет
Параметр GMC формата : Без точки перехода
Параметр матрицы формата : Выборочная
Идентификатор кодека : XVID
Идентификатор кодека/Подсказка : XviD
Продолжительность : 1 ч. 45 м.
Битрейт : 849 Кбит/сек
Ширина : 720 пикселей
Высота : 304 пикселя
Соотношение сторон : 2,35:1
Частота кадров : 23,976 кадра/сек
Цветовое пространство : YUV
Субдискретизация насыщенности : 4:2:0
Битовая глубина : 8 бит
Тип развёртки : Прогрессивная
Метод сжатия : С потерями
Бит/(Пиксели*Кадры) : 0.162
Размер потока : 641 Мбайт (86%)
Библиотека кодирования : XviD 65

Аудио
Идентификатор : 1
Формат : MPEG Audio
Версия формата : Version 1
Профиль формата : Layer 3
Идентификатор кодека : 55
Идентификатор кодека/Подсказка : MP3
Продолжительность : 1 ч. 45 м.
Вид битрейта : Постоянный
Битрейт : 128 Кбит/сек
Каналы : 2 канала
Частота : 48,0 КГц
Метод сжатия : С потерями
Размер потока : 96,6 Мбайт (13%)
Выравнивание : Соединение по промежуткам
Продолжительность промежутка : 42 мс. (1,00 видеокадр)
Время предзагрузки промежутка : 504 мс.
Библиотека кодирования : LAME3.99r
Настройки программы : -m s -V 4 -q 2 -lowpass 17 -b 128


Скриншоты
загрузка...
Правила, инструкции, FAQ!!!
Торрент  Добавлен [16 май 2014, 00:25] Скачать торрент
Скачать торрент
[ Размер 15.06 КБ / Просмотров 12 ]

Статус  
 
Размер  744.8 МБ
Приватный: Нет (DHT включён)
.torrent скачан  0
Как залить торрент? | Как скачать Torrent? | Как смотреть и слушать онлайн?  


     Отправить личное сообщение
   
Страница 1 из 1
Показать сообщения за:  Поле сортировки  
Начать новую тему Ответить на тему

   Похожие торренты   Автор   Ответы   Просмотры   Последнее сообщение 
В этой теме нет новых непрочитанных сообщений. Скачать торрент Проверен [VIDEO] Джек Райан: Теория Хаоса / Jack Ryan: Shadow Recruit (Кеннет Брана / Kenneth Branagh) [2014г, Россия, США, боевик, триллер, драма, HDRip][MP4, 640x] Dub

в форуме Видео для смартфонов и КПК, Размер: 914.91 МБ, Здоровье: 100%

Anonymous

0
41|13

35
0

02 авг 2014, 16:54

Anonymous Перейти к последнему сообщению

В этой теме нет новых непрочитанных сообщений. Скачать торрент Проверен Джек Райан: Теория хаоса / Jack Ryan: Shadow Recruit (2014) HDRip | Лицензия

в форуме Боевики, Размер: 1.45 ГБ, Здоровье: 100%

Anonymous

0
895|33

45
4890

18 май 2014, 21:58

Anonymous Перейти к последнему сообщению

В этой теме нет новых непрочитанных сообщений. Скачать торрент Проверен [iPad] Сыщик / Sleuth (Кеннет Брэна / Kenneth Branagh) [2007., триллер, драма, детектив, BDRip 720p]

в форуме Фильмы для iPod, iPhone, iPad, Размер: 2.05 ГБ, Здоровье: 100%

Гость

0
7|2

17
0

11 май 2015, 01:37

Гость Перейти к последнему сообщению

В этой теме нет новых непрочитанных сообщений. Скачать торрент Как вам это понравится (Так как ты любишь) / As You Like It (Кеннет Брана / Kenneth Branagh) [2006 г., комедия, драма, мелодрама, DVDRip] MVO

в форуме Комедии, Размер: 746.55 МБ, Здоровье: 100%

Anonymous

0
2|0

120
1

11 фев 2014, 09:17

Anonymous Перейти к последнему сообщению

В этой теме нет новых непрочитанных сообщений. Скачать торрент [VIDEO] Тор / Thor (Кеннет Брэна / Kenneth Branagh, Джосс Уидон / Joss Whedon) [2011г, США, фэнтези, боевик, приключения, BDRip][MP4, 640x]

в форуме Видео для смартфонов и КПК, Размер: 993.98 МБ, Здоровье: 100%

Anonymous

0
14|5

44
0

30 янв 2014, 06:45

Anonymous Перейти к последнему сообщению



Сейчас этот форум просматривают: нет зарегистрированных пользователей и гости: 1


Вы не можете начинать темы
Вы не можете отвечать на сообщения
Вы не можете редактировать свои сообщения
Вы не можете удалять свои сообщения
Вы не можете добавлять вложения

Перейти:  

!ВНИМАНИЕ!
 Ресурс не предоставляет электронные версии произведений, а занимается лишь коллекционированием и каталогизацией ссылок, присылаемых и публикуемых на форуме нашими читателями. Если вы являетесь правообладателем какого-либо представленного материала и не желаете чтобы ссылка на него находилась в нашем каталоге, свяжитесь с нами и мы незамедлительно удалим её. Файлы для обмена на трекере предоставлены пользователями сайта, и администрация не несёт ответственности за их содержание. Просьба не заливать файлы, защищенные авторскими правами, а также файлы нелегального содержания!