На всех торрентах на трекере установлена скидка на скачивание в размере 100 процентов(а).
 Возможность скачивания торрента НЕ зависит от ограничений при низком ратио, низком аплоаде, требуемом ратио или требуемом аплоаде.


Начать новую тему Ответить на тему
Статистика раздачи
Размер: 1.46 ГБ | Добавлен: 03 дек 2016, 17:01 | Скачали: 6
Сидеров: 83  [0 байт/сек]    Личеров: 11  [0 байт/сек]
Пред. тема | След. тема 

Автор
Сообщение

СообщениеДобавлено: 03 дек 2016, 17:01 

Зачинщики / Masterminds


«А что бы ты делал с $17 миллионами?»
Страна: США
Жанр: Боевик, комедия, криминал
Год выпуска: 2016
Продолжительность: 01:30:44
Перевод: Профессиональный (дублированный) - iTunes
Cубтитры: нет
Режиссер: Джаред Хесс / Jared Hess
В ролях: Зак Галифианакис, Оуэн Уилсон, Кристен Уиг, Джейсон Судейкис, Кейт МакКиннон, Лесли Джонс, Мэри Элизабет Эллис, Кен Марино, Девин Рэтрей, Джон Дэйли
Описание: Бывший клерк банка вместе со своей любовницей проворачивает дерзкое ограбление инкассаторской машины и забирает 17 миллионов баксов. Но по неопытности преступники-дебютанты оставляют на месте преступления столько следов и улик, что вряд ли смогут получить удовольствие от добычи.
/
Релиз от: MegaPeer
Качество видео: WEB-DLRip
Формат видео: AVI
Видео: 704x384 (1.85:1), 25.000 fps, XviD build 73, 1915 Kbps, 0.28 bit/pixel
Аудио: 48 kHz, AC3 Dolby Digital, 3/2 (L,C,R,l,r) + LFE ch, 384 Kbps
General
Complete name : Downloads\Masterminds.2016.WEB-DLRip.1.46Gb.MegaPeer.avi
Format : AVI
Format/Info : Audio Video Interleave
File size : 1.46 GiB
Duration : 1h 30mn
Overall bit rate : 2 307 Kbps
Video #0
ID : 0
Format : MPEG-4 Visual
Format profile : Advanced Simple@L5
Format settings, BVOP : 1
Format settings, QPel : No
Format settings, GMC : No warppoints
Format settings, Matrix : Custom
Codec ID : XVID
Codec ID/Hint : XviD
Duration : 1h 30mn
Bit rate : 1 915 Kbps
Width : 704 pixels
Height : 384 pixels
Display aspect ratio : 1.85:1
Frame rate : 25.000 fps
Color space : YUV
Chroma subsampling : 4:2:0
Bit depth : 8 bits
Scan type : Progressive
Compression mode : Lossy
Bits/(Pixel*Frame) : 0.283
Stream size : 1.21 GiB (83%)
Writing library : XviD 73
Audio #1
ID : 1
Format : AC-3
Format/Info : Audio Coding 3
Mode extension : CM (complete main)
Format settings, Endianness : Big
Codec ID : 2000
Duration : 1h 30mn
Bit rate mode : Constant
Bit rate : 384 Kbps
Channel(s) : 6 channels
Channel positions : Front: L C R, Side: L R, LFE
Sampling rate : 48.0 KHz
Bit depth : 16 bits
Compression mode : Lossy
Stream size : 249 MiB (17%)
Alignment : Aligned on interleaves
Interleave, duration : 64 ms (1.60 video frames)
Interleave, preload duration : 192 ms
Title : iTunes

загрузка...
Правила, инструкции, FAQ!!!
Торрент  Добавлен [03 дек 2016, 17:01] Скачать торрент
Скачать торрент
[ Размер 15.09 КБ / Просмотров 62 ]

Статус
Проверен 
 
Размер  1.46 ГБ
Приватный: Нет (DHT включён)
.torrent скачан  6
Как залить торрент? | Как скачать Torrent? | Как смотреть и слушать онлайн?  


     Отправить личное сообщение
   
Страница 1 из 1
Показать сообщения за:  Поле сортировки  
Начать новую тему Ответить на тему

   Похожие торренты   Автор   Ответы   Просмотры   Последнее сообщение 
В этой теме нет новых непрочитанных сообщений. Скачать торрент Проверен Зверополис 3Д / Zootopia 3D (Байрон Ховард, Рич Мур, Джаред Буш / Byron Howard, Rich Moore, Jared Bush) [2016, США, мультфильм, боевик, комедия, криминал, детектив, приключения, семейный, Blu-ray 1080p] [CEE] DUB BD3D

в форуме 3D Мультфильмы, Размер: 45.8 ГБ, Здоровье: 100%

Anonymous

0
30|10

80
0

07 сен 2016, 18:24

Anonymous Перейти к последнему сообщению

В этой теме нет новых непрочитанных сообщений. Скачать торрент Проверен Зверополис в 3Д / Zootopia 3D (Байрон Ховард, Рич Мур, Джаред Буш / Byron Howard, Rich Moore, Jared Bush) [2016, Мультфильм, Боевик, Комедия, Криминал, Приключения, BDrip, 1080p] OverUnder / Вертикальная стереопара

в форуме 3D Мультфильмы, Размер: 11.77 ГБ, Здоровье: 0%

Anonymous

0
0|0

58
0

07 сен 2016, 18:22

Anonymous Перейти к последнему сообщению

В этой теме нет новых непрочитанных сообщений. Скачать торрент Проверен Зверополис в 3Д / Zootopia 3D (Байрон Ховард, Рич Мур, Джаред Буш / Byron Howard, Rich Moore, Jared Bush) [2016, Мультфильм, Боевик, Комедия, Криминал, Приключения, Семейный, BDrip-AVC] (Видео Рус.) Half OverUnder / Вертикальная анаморфная стереопара

в форуме 3D Мультфильмы, Размер: 7.71 ГБ, Здоровье: 100%

Anonymous

0
34|11

62
1

07 сен 2016, 18:24

Anonymous Перейти к последнему сообщению

В этой теме нет новых непрочитанных сообщений. Скачать торрент Проверен Шпион / Spy (Пол Фиг / Paul Feig) [2015, США, Боевик, комедия, криминал, WEB-DLRip] Dub (iTunes)

в форуме Боевики, Размер: 1.46 ГБ, Здоровье: 100%

Гость

0
35|11

255
1

06 сен 2015, 22:45

Гость Перейти к последнему сообщению

В этой теме нет новых непрочитанных сообщений. Скачать торрент Проверен [VIDEO] 3 дня на убийство / 3 Days to Kill (МакДжи / McG) [2014, боевик, криминал, триллер, драма, WEB-DLRip] [MP4, 640x] [Theatrical Cut] Dub iTunes

в форуме Видео для смартфонов и КПК, Размер: 679.21 МБ, Здоровье: 100%

Anonymous

0
7|2

74
0

02 авг 2014, 16:55

Anonymous Перейти к последнему сообщению



Сейчас этот форум просматривают: нет зарегистрированных пользователей и гости: 1


Вы не можете начинать темы
Вы не можете отвечать на сообщения
Вы не можете редактировать свои сообщения
Вы не можете удалять свои сообщения
Вы не можете добавлять вложения

Перейти:  

!ВНИМАНИЕ!
 Ресурс не предоставляет электронные версии произведений, а занимается лишь коллекционированием и каталогизацией ссылок, присылаемых и публикуемых на форуме нашими читателями. Если вы являетесь правообладателем какого-либо представленного материала и не желаете чтобы ссылка на него находилась в нашем каталоге, свяжитесь с нами и мы незамедлительно удалим её. Файлы для обмена на трекере предоставлены пользователями сайта, и администрация не несёт ответственности за их содержание. Просьба не заливать файлы, защищенные авторскими правами, а также файлы нелегального содержания!