На всех торрентах на трекере установлена скидка на скачивание в размере 100 процентов(а).
 Возможность скачивания торрента НЕ зависит от ограничений при низком ратио, низком аплоаде, требуемом ратио или требуемом аплоаде.


Начать новую тему Ответить на тему
Статистика раздачи
Размер: 2.17 ГБ | Добавлен: 24 апр 2014, 14:07 | Скачали: 0
Сидеров: 7  [0 байт/сек]    Личеров: 2  [0 байт/сек]
Пред. тема | След. тема 

Автор
Сообщение

СообщениеДобавлено: 24 апр 2014, 14:07 

Убить Билла: Фильм 2 / Kill Bill: Vol. 2

Страна: США
Жанр: боевик, триллер
Год выпуска: 2004
Продолжительность: 02:16:58

Перевод: Одноголосый (закадровый) Михаил Яроцкий / kyberpunk

(Ненормативная лексика)

Субтитры: нет
Режиссер: Квентин Тарантино / Quentin Tarantino
В ролях: Ума Турман, Дэвид Кэрредин, Люси Лью, Вивика А. Фокс, Джа Хуи Лью, Майкл Мэдсен, Дэрил Ханна, Майкл Паркс, Бо Свенсон, Дженни Эппер

Описание: Вычеркнув двоих из смертельного списка, Невеста лишь наполовину приблизилась к цели. Теперь на очереди Бад и Элли Драйвер, уже приговоренные воскресшей жертвой! Еще два опасных шага перед последней схваткой, в которой она должна Убить Билла!





Тип релиза: BDRip-AVC
Контейнер: MKV
Видео: x264, 1120x464 (2.40:1), 1824 Kbps, 23.976 fps
Аудио: AC3, 16 bits, 448 kbps, 48,0 kHz, 5.1


MediaInfo
Код:
Код:
General
Unique ID                                : 218820031964573902591144721839627000305 (0xA49F3487EFE156289D4BABEDA6D159F1)
Complete name                            : Kill.Bill.2.NTSC.International.Cut.Kyberpunk.mkv
Format                                   : Matroska
Format version                           : Version 4 / Version 2
File size                                : 2.17 GiB
Duration                                 : 2h 16mn
Overall bit rate mode                    : Variable
Overall bit rate                         : 2 273 Kbps
Encoded date                             : UTC 2013-02-13 10:37:44
Writing application                      : mkvmerge v6.0.0 ('Coming Up For Air') built on Jan 20 2013 09:52:00
Writing library                          : libebml v1.3.0 + libmatroska v1.4.0

Video
ID                                       : 1
Format                                   : AVC
Format/Info                              : Advanced Video Codec
Format profile                           : High@L4.1
Format settings, CABAC                   : Yes
Format settings, ReFrames                : 16 frames
Codec ID                                 : V_MPEG4/ISO/AVC
Duration                                 : 2h 16mn
Bit rate mode                            : Variable
Bit rate                                 : 1 824 Kbps
Maximum bit rate                         : 50.0 Mbps
Width                                    : 1 120 pixels
Height                                   : 464 pixels
Display aspect ratio                     : 2.40:1
Frame rate mode                          : Constant
Frame rate                               : 23.976 fps
Color space                              : YUV
Chroma subsampling                       : 4:2:0
Bit depth                                : 8 bits
Scan type                                : Progressive
Bits/(Pixel*Frame)                       : 0.146
Stream size                              : 1.70 GiB (78%)
Title                                    : by Perevodman
Writing library                          : x264 core 129 r2245 bc13772
Encoding settings                        : cabac=1 / ref=16 / deblock=1:-3:-3 / analyse=0x3:0x133 / me=umh / subme=10 / psy=1 / psy_rd=1.00:0.00 / mixed_ref=1 / me_range=32 / chroma_me=1 / trellis=2 / 8x8dct=1 / cqm=0 / deadzone=21,11 / fast_pskip=0 / chroma_qp_offset=-2 / threads=6 / lookahead_threads=1 / sliced_threads=0 / nr=0 / decimate=0 / interlaced=0 / bluray_compat=0 / constrained_intra=0 / bframes=16 / b_pyramid=2 / b_adapt=2 / b_bias=0 / direct=3 / weightb=1 / open_gop=0 / weightp=2 / keyint=240 / keyint_min=23 / scenecut=40 / intra_refresh=0 / rc_lookahead=60 / rc=2pass / mbtree=1 / bitrate=1824 / ratetol=1.0 / qcomp=0.60 / qpmin=10 / qpmax=51 / qpstep=4 / cplxblur=20.0 / qblur=0.5 / vbv_maxrate=50000 / vbv_bufsize=62500 / nal_hrd=vbr / ip_ratio=1.40 / aq=1:1.00
Language                                 : English
Default                                  : Yes
Forced                                   : No

Audio
ID                                       : 2
Format                                   : AC-3
Format/Info                              : Audio Coding 3
Mode extension                           : CM (complete main)
Format settings, Endianness              : Big
Codec ID                                 : A_AC3
Duration                                 : 2h 16mn
Bit rate mode                            : Constant
Bit rate                                 : 448 Kbps
Channel(s)                               : 6 channels
Channel positions                        : Front: L C R, Side: L R, LFE
Sampling rate                            : 48.0 KHz
Bit depth                                : 16 bits
Compression mode                         : Lossy
Stream size                              : 439 MiB (20%)
Title                                    : AVO Kyberpunk
Language                                 : Russian
Default                                  : Yes
Forced                                   : No
загрузка...
Правила, инструкции, FAQ!!!
Торрент  Добавлен [24 апр 2014, 14:07] Скачать торрент
Скачать торрент
[ Размер 11.38 КБ / Просмотров 5 ]

Статус  
 
Размер  2.17 ГБ
Приватный: Нет (DHT включён)
.torrent скачан  0
Как залить торрент? | Как скачать Torrent? | Как смотреть и слушать онлайн?  


     Отправить личное сообщение
   
Страница 1 из 1
Показать сообщения за:  Поле сортировки  
Начать новую тему Ответить на тему

   Похожие торренты   Автор   Ответы   Просмотры   Последнее сообщение 
В этой теме нет новых непрочитанных сообщений. Скачать торрент Убить Билла: Фильм 1 / Kill Bill: Vol. 1 (Квентин Тарантино / Quentin Tarantino) [2003 г., Триллер, Драма, Детектив, Боевик, BDRip]

в форуме Триллеры, Размер: 1.46 ГБ, Здоровье: 0%

Anonymous

0
0|0

476
0

24 апр 2014, 14:07

Anonymous Перейти к последнему сообщению

В этой теме нет новых непрочитанных сообщений. Скачать торрент Проверен [iPhone] Убить Билла. Фильм 1, 2 / Kill Bill: Vol. 1, 2 (Квентин Тарантино / Quentin Tarantino) [2003-2004 г., Боевик, триллер, драма, криминал, DVDRip]

в форуме Фильмы для iPod, iPhone, iPad, Размер: 1.32 ГБ, Здоровье: 100%

Anonymous

0
2|2

329
2

14 май 2015, 00:01

Anonymous Перейти к последнему сообщению

В этой теме нет новых непрочитанных сообщений. Скачать торрент Доказательство смерти / Death Proof (Квентин Тарантино / Quentin Tarantino) [2007, боевик, триллер, криминал, BDRip-AVC]

в форуме 720p | 1080p, Размер: 2.59 ГБ, Здоровье: 100%

Anonymous

0
2|1

70
0

17 фев 2014, 08:07

Anonymous Перейти к последнему сообщению

В этой теме нет новых непрочитанных сообщений. Скачать торрент Город грехов / Sin City (Фрэнк Миллер / Frank Miller, Роберт Родригес / Robert Rodriguez, Квентин Тарантино / Quentin Tarantino) [2005 г., боевик, триллер, криминал, детектив, BDRip] Dub

в форуме Боевики, Размер: 2.18 ГБ, Здоровье: 100%

Anonymous

0
56|19

217
0

25 апр 2014, 08:54

Anonymous Перейти к последнему сообщению

В этой теме нет новых непрочитанных сообщений. Скачать торрент Проверен [iPad] Город грехов / Sin city (Фрэнк Миллер, Роберт Родригес, Квентин Тарантино/ Frank Miller, Robert Rodriguez, Quentin Tarantino) [2005, США, Боевик, триллер, криминал, комикс, BDRip, 576p] [Theatrical cut] Dub + Original + sub (rus, eng)

в форуме Фильмы для iPod, iPhone, iPad, Размер: 2.12 ГБ, Здоровье: 100%

Anonymous

0
56|19

72
0

11 май 2015, 01:31

Anonymous Перейти к последнему сообщению



Сейчас этот форум просматривают: нет зарегистрированных пользователей и гости: 2


Вы не можете начинать темы
Вы не можете отвечать на сообщения
Вы не можете редактировать свои сообщения
Вы не можете удалять свои сообщения
Вы не можете добавлять вложения

Перейти:  

!ВНИМАНИЕ!
 Ресурс не предоставляет электронные версии произведений, а занимается лишь коллекционированием и каталогизацией ссылок, присылаемых и публикуемых на форуме нашими читателями. Если вы являетесь правообладателем какого-либо представленного материала и не желаете чтобы ссылка на него находилась в нашем каталоге, свяжитесь с нами и мы незамедлительно удалим её. Файлы для обмена на трекере предоставлены пользователями сайта, и администрация не несёт ответственности за их содержание. Просьба не заливать файлы, защищенные авторскими правами, а также файлы нелегального содержания!