На всех торрентах на трекере установлена скидка на скачивание в размере 100 процентов(а).
 Возможность скачивания торрента НЕ зависит от ограничений при низком ратио, низком аплоаде, требуемом ратио или требуемом аплоаде.


Начать новую тему Ответить на тему
Статистика раздачи
Размер: 1.46 ГБ | Добавлен: 22 апр 2014, 11:40 | Скачали: 0
Сидеров: 56  [0 байт/сек]    Личеров: 19  [0 байт/сек]
Пред. тема | След. тема 

Автор
Сообщение

СообщениеДобавлено: 22 апр 2014, 11:40 

Год выпуска: 2001
Выпущено: США, Германия / Paramount Pictures, Mandalay Pictures
Жанр: боевик, триллер, криминал
Продолжительность: 02:04:01
Перевод: Профессиональный (многоголосый закадровый)
Позитив-Мультимедиа + Профессиональный (многоголосый закадровый) R1
Cубтитры: нет
Режиссер:
Фрэнк Оз / Frank Oz
В ролях:
Роберт Де Ниро (Nick Wells), Эдвард Нортон (Jack Teller), Марлон Брандо (Max), Анджела Бассетт (Diane), Гэри Фармер (Burt), Пол Соулз (Danny), Джэми Харольд (Steven), Серж Уд (Laurent), Жан-Рене Уэлле (André), Мартин Дрэнвиль (Jean-Claude), Клод Деспен (Albert), Ричард Во (Sapperstein)
Описание:
Максу удается уговорить Ника Уэллса поступиться своими двумя самыми важными правилами: всегда работать в одиночку и никогда не грабить в своем городе. Макс нашел ему партнера. События начинают стремительно развиваться. Каждый из медвежатников старается обыграть другого. Планируемое ограбление держит всех в напряжении от начала и до конца. Развязка наступает неожиданно…





Качество: BDRip
Формат: AVI

Видео: 720x304 (2.37:1), 23.976 fps, XviD build 73 ~1290 kbps avg, 0.25 bit/pixel
Аудио #1: 48 kHz, AC3 Dolby Digital, 2/0 (L,R) ch, ~192.00 kbps avg (Позитив)
Аудио #2: 48 kHz, AC3 Dolby Digital, 2/0 (L,R) ch, ~192.00 kbps avg (R1)
Скриншоты
MediaInfo
Код:
Код:
General
Complete name                            : D:\Medvezhatnik_2001_BDRip_by_Dalemake.avi
Format                                   : AVI
Format/Info                              : Audio Video Interleave
File size                                : 1.46 GiB
Duration                                 : 2h 4mn
Overall bit rate                         : 1 690 Kbps
Writing application                      : VirtualDubMod 1.5.10.3 | www.virtualdub-fr.org || (build 2550/release)
Writing library                          : VirtualDubMod build 2550/release

Video
ID                                       : 0
Format                                   : MPEG-4 Visual
Format profile                           : Advanced Simple@L5
Format settings, BVOP                    : 1
Format settings, QPel                    : No
Format settings, GMC                     : No warppoints
Format settings, Matrix                  : Custom
Codec ID                                 : XVID
Codec ID/Hint                            : XviD
Duration                                 : 2h 4mn
Bit rate                                 : 1 291 Kbps
Width                                    : 720 pixels
Height                                   : 304 pixels
Display aspect ratio                     : 2.35:1
Frame rate                               : 23.976 fps
Color space                              : YUV
Chroma subsampling                       : 4:2:0
Bit depth                                : 8 bits
Scan type                                : Progressive
Compression mode                         : Lossy
Bits/(Pixel*Frame)                       : 0.246
Stream size                              : 1.12 GiB (76%)
Writing library                          : XviD 73

Audio #1
ID                                       : 1
Format                                   : AC-3
Format/Info                              : Audio Coding 3
Mode extension                           : CM (complete main)
Format settings, Endianness              : Big
Codec ID                                 : 2000
Duration                                 : 2h 4mn
Bit rate mode                            : Constant
Bit rate                                 : 192 Kbps
Channel(s)                               : 2 channels
Channel positions                        : Front: L R
Sampling rate                            : 48.0 KHz
Bit depth                                : 16 bits
Compression mode                         : Lossy
Stream size                              : 170 MiB (11%)
Alignment                                : Split accross interleaves
Interleave, duration                     : 42 ms (1.00 video frame)
Interleave, preload duration             : 500 ms

Audio #2
ID                                       : 2
Format                                   : AC-3
Format/Info                              : Audio Coding 3
Mode extension                           : CM (complete main)
Format settings, Endianness              : Big
Codec ID                                 : 2000
Duration                                 : 2h 4mn
Bit rate mode                            : Constant
Bit rate                                 : 192 Kbps
Channel(s)                               : 2 channels
Channel positions                        : Front: L R
Sampling rate                            : 48.0 KHz
Bit depth                                : 16 bits
Compression mode                         : Lossy
Stream size                              : 170 MiB (11%)
Alignment                                : Split accross interleaves
Interleave, duration                     : 42 ms (1.00 video frame)
Interleave, preload duration             : 500 ms
загрузка...
Правила, инструкции, FAQ!!!
Торрент  Добавлен [22 апр 2014, 11:40] Скачать торрент
Скачать торрент
[ Размер 15.25 КБ / Просмотров 5 ]

Статус  
 
Размер  1.46 ГБ
Приватный: Нет (DHT включён)
.torrent скачан  0
Как залить торрент? | Как скачать Torrent? | Как смотреть и слушать онлайн?  


     Отправить личное сообщение
   
Страница 1 из 1
Показать сообщения за:  Поле сортировки  
Начать новую тему Ответить на тему

   Похожие торренты   Автор   Ответы   Просмотры   Последнее сообщение 
В этой теме нет новых непрочитанных сообщений. Скачать торрент Город грехов / Sin City (Фрэнк Миллер / Frank Miller, Роберт Родригес / Robert Rodriguez, Квентин Тарантино / Quentin Tarantino) [2005 г., боевик, триллер, криминал, детектив, BDRip] Dub

в форуме Боевики, Размер: 2.18 ГБ, Здоровье: 100%

Anonymous

0
56|19

215
0

25 апр 2014, 08:54

Anonymous Перейти к последнему сообщению

В этой теме нет новых непрочитанных сообщений. Скачать торрент Проверен [iPad] Город грехов / Sin city (Фрэнк Миллер, Роберт Родригес, Квентин Тарантино/ Frank Miller, Robert Rodriguez, Quentin Tarantino) [2005, США, Боевик, триллер, криминал, комикс, BDRip, 576p] [Theatrical cut] Dub + Original + sub (rus, eng)

в форуме Фильмы для iPod, iPhone, iPad, Размер: 2.12 ГБ, Здоровье: 100%

Anonymous

0
56|19

70
0

11 май 2015, 01:31

Anonymous Перейти к последнему сообщению

В этой теме нет новых непрочитанных сообщений. Скачать торрент Проверен [iPad] Город грехов / Sin City (Фрэнк Миллер / Frank Miller, Роберт Родригес / Robert Rodriguez, Квентин Тарантино / Quentin Tarantino) [2005 г., боевик, триллер, криминал, детектив, BDRip 720p] [Новый монтаж, расширенная версия / Recut Extended Unra

в форуме Фильмы для iPod, iPhone, iPad, Размер: 3.64 ГБ, Здоровье: 100%

Гость

0
10|3

77
0

12 май 2015, 00:12

Гость Перейти к последнему сообщению

В этой теме нет новых непрочитанных сообщений. Скачать торрент Город грехов / Sin City (Фрэнк Миллер / Frank Miller, Роберт Родригес / Robert Rodriguez, Квентин Тарантино / Quentin Tarantino) [2005 г., Боевик, Триллер, Криминал, HDRip]

в форуме Боевики, Размер: 1.47 ГБ, Здоровье: 100%

Anonymous

0
56|19

159
0

26 апр 2014, 20:59

Anonymous Перейти к последнему сообщению

В этой теме нет новых непрочитанных сообщений. Скачать торрент Мститель / The Spirit (Фрэнк Миллер / Frank Miller) [2008, Триллер, боевик, HDRip] Dub

в форуме Триллеры, Размер: 745.39 МБ, Здоровье: 100%

Anonymous

0
23|8

39
0

16 апр 2014, 07:51

Anonymous Перейти к последнему сообщению



Сейчас этот форум просматривают: нет зарегистрированных пользователей и гости: 1


Вы не можете начинать темы
Вы не можете отвечать на сообщения
Вы не можете редактировать свои сообщения
Вы не можете удалять свои сообщения
Вы не можете добавлять вложения

Перейти:  

!ВНИМАНИЕ!
 Ресурс не предоставляет электронные версии произведений, а занимается лишь коллекционированием и каталогизацией ссылок, присылаемых и публикуемых на форуме нашими читателями. Если вы являетесь правообладателем какого-либо представленного материала и не желаете чтобы ссылка на него находилась в нашем каталоге, свяжитесь с нами и мы незамедлительно удалим её. Файлы для обмена на трекере предоставлены пользователями сайта, и администрация не несёт ответственности за их содержание. Просьба не заливать файлы, защищенные авторскими правами, а также файлы нелегального содержания!