На всех торрентах на трекере установлена скидка на скачивание в размере 100 процентов(а).
 Возможность скачивания торрента НЕ зависит от ограничений при низком ратио, низком аплоаде, требуемом ратио или требуемом аплоаде.


Начать новую тему Ответить на тему
Статистика раздачи
Размер: 1.46 ГБ | Добавлен: 11 янв 2013, 06:21 | Скачали: 0
Сидеров: 0  [0 байт/сек]    Личеров: 0  [0 байт/сек]
Пред. тема | След. тема 

Автор
Сообщение

СообщениеДобавлено: 11 янв 2013, 06:21 

Хамилтон 2: только если это не касается вашей дочери



Описание: У знакомой Хамилтона похищают дочь, после того как она выступила перед журналистами с критикой одной мусульманской группировки. Но это не простое похищение, оно несёт как политический, так и личный характер. С помощью отца девочки Хамильтон решает отправится на поиски пропавшей девочки и брутально отомстить похитителям…

Название: Хамилтон 2: только если это не касается вашей дочери
Год выхода: 2012
Жанр: боевик, триллер, драма
Режиссер: Тобиаш Фальк

В фильме снимались: Микаэл Персбрандт, Стивен Вэддингтон, Джон Лайт, Frida Hallgren, Дэвид Ринтул, Кэл Макэнинк, Питер Эггерс, Милинд Соман, Найджел Уитми, Саба Мубарак




Выпущено: Швеция
Продолжительность: 01:29:47
Перевод: Любительский (одноголосый закадровый) - [den904], перевод [Skyworker]
Субтитры: Русские, английские



Качество: HDRip
Формат: AVI
Видео: XviD, 1862 Кбит/с, 720x304
Аудио Rus: AC3, 6 ch, 448 Кбит/с

Формат : AVI
Формат/Информация : Audio Video Interleave
Размер файла : 1,46 Гбайт
Продолжительность : 1 ч. 29 м.
Общий поток : 2320 Кбит/сек
Название фильма : Hamilton 2 (2012)
Режиссёр : ed_rez
Программа кодирования : VirtualDubMod 1.5.10.3 (build 2550/release)
Библиотека кодирования : VirtualDubMod build 2550/release

Видео
Идентификатор : 0
Формат : MPEG-4 Visual
Профиль формата : Advanced Simple@L5
Параметр BVOP формата : 2
Параметр QPel формата : Нет
Параметр GMC формата : Без точки перехода
Параметр матрицы формата : Выборочная
Режим смешивания : Сжатый битовый поток
Идентификатор кодека : XVID
Идентификатор кодека/Подсказка : XviD
Продолжительность : 1 ч. 29 м.
Битрейт : 1863 Кбит/сек
Ширина : 720 пикс.
Высота : 304 пикс.
Соотношение сторон : 2,35:1
Частота кадров : 24,000 кадр/сек
Цветовое пространство : YUV
Подвыборка цветности : 4:2:0
Битовая глубина : 8 бит
Тип развёртки : Прогрессивная
Метод сжатия : С потерями
Бит/(Пиксели*Кадры) : 0.355
Размер потока : 1,17 Гбайт (80%)
Библиотека кодирования : XviD 65

Аудио
Идентификатор : 1
Формат : AC-3
Формат/Информация : Audio Coding 3
Расширение режима : CM (complete main)
Идентификатор кодека : 2000
Продолжительность : 1 ч. 29 м.
Вид битрейта : Постоянный
Битрейт : 448 Кбит/сек
Каналы : 6 каналов
Расположение каналов : Front: L C R, Side: L R, LFE
Частота : 48,0 КГц
Битовая глубина : 16 бит
Метод сжатия : С потерями
Размер потока : 288 Мбайт (19%)
Выравнивание : Разделение по промежуткам
Продолжительность промежутка : 42 мс. (1,00 видеокадр)
Время предзагрузки промежутка : 500 ms



Приятного просмотра!
загрузка...
Правила, инструкции, FAQ!!!
Торрент  Добавлен [11 янв 2013, 06:21] Скачать торрент
Скачать торрент
[ Размер 14.97 КБ / Просмотров 10 ]

Статус
Проверен 
 
Размер  1.46 ГБ
Приватный: Нет (DHT включён)
.torrent скачан  0
Как залить торрент? | Как скачать Torrent? | Как смотреть и слушать онлайн?  


     Отправить личное сообщение
   
Страница 1 из 1
Показать сообщения за:  Поле сортировки  
Начать новую тему Ответить на тему

   Похожие торренты   Автор   Ответы   Просмотры   Последнее сообщение 
В этой теме нет новых непрочитанных сообщений. Скачать торрент Проверен [iPhone] Схватка / The Grey (Джо Карнахан / Joe Carnahan) [2012, Боевик, триллер, драма, приключения, HDRip, 480x200]

в форуме Фильмы для iPod, iPhone, iPad, Размер: 593.06 МБ, Здоровье: 100%

Anonymous

0
1|0

48
0

18 май 2015, 10:54

Anonymous Перейти к последнему сообщению

В этой теме нет новых непрочитанных сообщений. Скачать торрент Проверен [iPad] Пылающий остров / Java Heat (Конор Эллин / Conor Allyn ) [2012, США, боевик, триллер, драма, криминал, HDRip, SD (576p)] DUB + Original + sub (rus, eng)

в форуме Фильмы для iPod, iPhone, iPad, Размер: 1.8 ГБ, Здоровье: 100%

Гость

0
11|4

21
0

13 май 2015, 23:58

Гость Перейти к последнему сообщению

В этой теме нет новых непрочитанных сообщений. Скачать торрент Одиночка / A Man Apart (Ф. Гэри Грей / F. Gary Gray) [2003 г., боевик, триллер, драма, криминал, HDRip] Dub

в форуме Боевики, Размер: 744.42 МБ, Здоровье: 100%

Anonymous

0
2|1

54
0

26 апр 2014, 20:57

Anonymous Перейти к последнему сообщению

В этой теме нет новых непрочитанных сообщений. Скачать торрент Неуправляемый / Unstoppable (Тони Скотт / Tony Scott) [2010, США, боевик, триллер, драма, HDRip] Dub

в форуме Боевики, Размер: 1.45 ГБ, Здоровье: 100%

Anonymous

0
56|19

31
1

13 фев 2014, 06:31

Anonymous Перейти к последнему сообщению

В этой теме нет новых непрочитанных сообщений. Скачать торрент Проверен [iPod] Хитмэн / Hitman (Ксавьер Генс) [2007 г., боевик, триллер, драма, криминал, HDRip]

в форуме Фильмы для iPod, iPhone, iPad, Размер: 341.41 МБ, Здоровье: 100%

Anonymous

0
3|1

37
0

14 май 2015, 00:25

Anonymous Перейти к последнему сообщению



Сейчас этот форум просматривают: нет зарегистрированных пользователей и гости: 1


Вы не можете начинать темы
Вы не можете отвечать на сообщения
Вы не можете редактировать свои сообщения
Вы не можете удалять свои сообщения
Вы не можете добавлять вложения

Перейти:  

!ВНИМАНИЕ!
 Ресурс не предоставляет электронные версии произведений, а занимается лишь коллекционированием и каталогизацией ссылок, присылаемых и публикуемых на форуме нашими читателями. Если вы являетесь правообладателем какого-либо представленного материала и не желаете чтобы ссылка на него находилась в нашем каталоге, свяжитесь с нами и мы незамедлительно удалим её. Файлы для обмена на трекере предоставлены пользователями сайта, и администрация не несёт ответственности за их содержание. Просьба не заливать файлы, защищенные авторскими правами, а также файлы нелегального содержания!