На всех торрентах на трекере установлена скидка на скачивание в размере 100 процентов(а).
 Возможность скачивания торрента НЕ зависит от ограничений при низком ратио, низком аплоаде, требуемом ратио или требуемом аплоаде.


Начать новую тему Ответить на тему
Статистика раздачи
Размер: 1.46 ГБ | Добавлен: 22 апр 2014, 11:40 | Скачали: 0
Сидеров: 2  [0 байт/сек]    Личеров: 1  [0 байт/сек]
Пред. тема | След. тема 

Автор
Сообщение

СообщениеДобавлено: 22 апр 2014, 11:40 

Территория смерти: Дорога домой / Долина смерти / Deathlands: Homeward Bound

Страна: США
Жанр: Боевик, пост-апокалипсис, фантастика
Год выпуска: 2003
Продолжительность: 01:26:13

Перевод: Профессиональный (двухголосый закадровый)
Cубтитры: нет
Режиссер: Джошуа Батлер / Joshua Butler

В ролях: Винсент Спано, Джения Лэно, Алан С. Петерсон, Трейси Лордс, Клифф Сондерс, Натан Картер

Описание: 2104 год… Целых сто лет мир раздирали войны и катаклизмы… Радиация вытравила небо… Багровый ядовитый туман поглотил тысячи километров теперь уже бесплодной земли.
Правительства и государства, какими мы их помним, больше не существуют… Гуманная цивилизация была устранена за ненадобностью… На смену ей пришли зверские феодальные войны и закон смерти… Добро пожаловать в Новую Реальность! Та территория, что раньше называлась Соединенными Штатами, теперь именуется Долиной Смерти. На ней безжалостные и могущественные тираны строят мелкие княжества, порабощая и истребляя тех, кому чудом удалось выжить в зловещем 22 веке. Но есть герои, которые смогут противостоять этому… Райан Кэудор, его прекрасная девушка-мутант Кристи, смертельный Джей Би Дикс и свирепый альбинос Джек Лорент - единственная надежда на возрождение Америки. Их ждёт опасное путешествие по Долине Смерти, где они станут храбро сражаться за свою свободу!..



Сэмпл: http://multi-up.com/621780

Качество видео: DVDRip
Формат видео: AVI

Видео: 704x400 (1.76:1), 23.976 fps, XviD build 50, 2226 kbps avg, 0.33 bit/pixel
Аудио: Russian: 48 kHz, AC3 Dolby Digital, 2/0 (L,R) ch, 192.00 kbps avg

MediaInfo
General
Complete name : E:\Мои раздачи\Deathlands_RG_All_Films.avi
Format : AVI
Format/Info : Audio Video Interleave
File size : 1.46 GiB
Duration : 1h 26mn
Overall bit rate : 2 428 Kbps
Writing application : VirtualDubMod 1.5.10.3 | http://www.virtualdub-fr.org || (build 2550/release)
Writing library : VirtualDubMod build 2550/release

Video
ID : 0
Format : MPEG-4 Visual
Format profile : Advanced Simple@L5
Format settings, BVOP : Yes
Format settings, QPel : No
Format settings, GMC : No warppoints
Format settings, Matrix : Custom
Codec ID : XVID
Codec ID/Hint : XviD
Duration : 1h 26mn
Bit rate : 2 227 Kbps
Width : 704 pixels
Height : 400 pixels
Display aspect ratio : 16:9
Frame rate : 23.976 fps
Color space : YUV
Chroma subsampling : 4:2:0
Bit depth : 8 bits
Scan type : Progressive
Compression mode : Lossy
Bits/(Pixel*Frame) : 0.330
Stream size : 1.34 GiB (92%)
Writing library : XviD 1.2.1 (UTC 2008-12-04)

Audio
ID : 1
Format : AC-3
Format/Info : Audio Coding 3
Mode extension : CM (complete main)
Codec ID : 2000
Duration : 1h 26mn
Bit rate mode : Constant
Bit rate : 192 Kbps
Channel(s) : 2 channels
Channel positions : Front: L R
Sampling rate : 48.0 KHz
Bit depth : 16 bits
Compression mode : Lossy
Stream size : 118 MiB (8%)
Alignment : Split accross interleaves
Interleave, duration : 42 ms (1.00 video frame)
Interleave, preload duration : 500 ms


Скриншоты
загрузка...
Правила, инструкции, FAQ!!!
Торрент  Добавлен [22 апр 2014, 11:40] Скачать торрент
Скачать торрент
[ Размер 15.11 КБ / Просмотров 5 ]

Статус  
 
Размер  1.46 ГБ
Приватный: Нет (DHT включён)
.torrent скачан  0
Как залить торрент? | Как скачать Torrent? | Как смотреть и слушать онлайн?  


     Отправить личное сообщение
   
Страница 1 из 1
Показать сообщения за:  Поле сортировки  
Начать новую тему Ответить на тему

   Похожие торренты   Автор   Ответы   Просмотры   Последнее сообщение 
В этой теме нет новых непрочитанных сообщений. Скачать торрент Проверен Сергей Алексеев - Пришельцы (Долина смерти) [Вячеслав Герасимов, 2010, фантастика, 128 kbps]

в форуме Аудиокниги (AAC, ALAC), Размер: 769.08 МБ, Здоровье: 0%

Anonymous

0
0|0

5
0

28 авг 2016, 17:56

Anonymous Перейти к последнему сообщению

В этой теме нет новых непрочитанных сообщений. Скачать торрент Семинарист / The Seminarian (Джошуа Лим / Joshua Lim) [2010 г., драма, гей-тема, DVDRip] VO

в форуме Драмы, Мелодрамы, Размер: 705.66 МБ, Здоровье: 100%

Anonymous

0
3|1

32
3

12 фев 2014, 08:17

Anonymous Перейти к последнему сообщению

В этой теме нет новых непрочитанных сообщений. Скачать торрент Проверен Миген Гонзалес-Випплер - Что происходит после смерти. Научные и личные свидетельства о жизни после смерти [2003, PDF, RUS]

в форуме Эзотерика, гадания, магия, фен-шуй, Размер: 17.46 МБ, Здоровье: 100%

Anonymous

0
3|1

8
1

28 авг 2016, 22:58

Anonymous Перейти к последнему сообщению

В этой теме нет новых непрочитанных сообщений. Скачать торрент Проверен Алексеев Сергей - Пришельцы (Долина смерти) [Владимир Сушков, 2007, 128 kbps]

в форуме Российская фантастика, фэнтези, мистика, ужасы, фанфики, Размер: 1014.12 МБ, Здоровье: 0%

Anonymous

0
0|0

6
0

10 сен 2016, 15:10

Anonymous Перейти к последнему сообщению

В этой теме нет новых непрочитанных сообщений. Скачать торрент Проверен Алексеев Сергей - Пришельцы (Долина смерти) [Сушков Владимир, 2012, 96 kbps, MP3]

в форуме Российская фантастика, фэнтези, мистика, ужасы, фанфики, Размер: 798.12 МБ, Здоровье: 0%

Anonymous

0
0|0

5
0

10 сен 2016, 14:44

Anonymous Перейти к последнему сообщению



Сейчас этот форум просматривают: нет зарегистрированных пользователей и гости: 3


Вы не можете начинать темы
Вы не можете отвечать на сообщения
Вы не можете редактировать свои сообщения
Вы не можете удалять свои сообщения
Вы не можете добавлять вложения

Перейти:  

!ВНИМАНИЕ!
 Ресурс не предоставляет электронные версии произведений, а занимается лишь коллекционированием и каталогизацией ссылок, присылаемых и публикуемых на форуме нашими читателями. Если вы являетесь правообладателем какого-либо представленного материала и не желаете чтобы ссылка на него находилась в нашем каталоге, свяжитесь с нами и мы незамедлительно удалим её. Файлы для обмена на трекере предоставлены пользователями сайта, и администрация не несёт ответственности за их содержание. Просьба не заливать файлы, защищенные авторскими правами, а также файлы нелегального содержания!