На всех торрентах на трекере установлена скидка на скачивание в размере 100 процентов(а).
 Возможность скачивания торрента НЕ зависит от ограничений при низком ратио, низком аплоаде, требуемом ратио или требуемом аплоаде.


Начать новую тему Ответить на тему
Статистика раздачи
Размер: 743.83 МБ | Добавлен: 19 апр 2014, 18:52 | Скачали: 1
Сидеров: 2  [0 байт/сек]    Личеров: 1  [0 байт/сек]
Пред. тема | След. тема 

Автор
Сообщение

СообщениеДобавлено: 19 апр 2014, 18:52 

Холодная смесь / Cold Fusion


Страна: США
Жанр: боевик
Год выпуска: 2010
Продолжительность: 01:23:00

Перевод: Профессиональный (многоголосый закадровый)
Cубтитры: нет
Режиссер: Иван Митов / Ivan Mitov

В ролях: Уильям Хоуп, Велизaр Бинев, Сара Браун, Рустам Касымов, Джон Ласковски, Мишель Ли, Эдриан Пол, Атанас Сребрев, Майк Страуб, Шелли Варод, Райчо Василев

Описание: В семидесятые годы, в небе над СССР подстреливают НЛО, который помещают в закрытую исследовательскую лабораторию. После распада Советского Союза, инопланетная технология попадает в руки террористов, использующих ее для создания разрушительного оружия массового поражения. Остановить преступников призвана группа секретных агентов…


Исходник: BD-Remux 1080

Качество видео: BDRip
Формат видео: AVI

Видео: 624x352 (1.77:1), 25 fps, XviD build 62 ~1109 kbps avg, 0.20 bit/pixel
Аудио: 48 kHz, MPEG Layer 3, 2 ch, ~128.00 kbps avg


за звук спасибо MacSim47
На BD сцена стриптиза была расширена на 95 секунд в отличии от TV версии. Однако в TV версии имелась сцена длиной 65 секунд, что отсутствовала на BD. С ее художественной ценностью можно ознакомиться вот здесь
MediaInfo
General
Complete name : C:\Documents and Settings\Администратор\Рабочий стол\Cold Fusion.BDRip.Rutracker.org_Drek.avi
Format : AVI
Format/Info : Audio Video Interleave
File size : 744 MiB
Duration : 1h 23mn
Overall bit rate : 1 248 Kbps
Movie name : Cold Fusion
Director : BDRip by Дрек
Genre : Action
Writing application : VirtualDubModRus 1.5.10.2 (build 2542/release)
Original source form/Name : Movie
Copyright : R.G.Torrents.Ru
Comment : Для Rutracker.org
[/quote]Video
ID : 0
Format : MPEG-4 Visual
Format profile : Advanced Simple@L5
Format settings, BVOP : Yes
Format settings, QPel : No
Format settings, GMC : No warppoints
Format settings, Matrix : Custom
Codec ID : XVID
Codec ID/Hint : XviD
Duration : 1h 23mn
Bit rate : 1 110 Kbps
Width : 624 pixels
Height : 352 pixels
Display aspect ratio : 16:9
Frame rate : 25.000 fps
Resolution : 8 bits
Colorimetry : 4:2:0
Scan type : Progressive
Bits/(Pixel*Frame) : 0.202
Stream size : 662 MiB (89%)
Writing library : XviD 62

Audio
ID : 1
Format : MPEG Audio
Format version : Version 1
Format profile : Layer 3
Codec ID : 55
Codec ID/Hint : MP3
Duration : 1h 23mn
Bit rate mode : Constant
Bit rate : 128 Kbps
Channel(s) : 2 channels
Sampling rate : 48.0 KHz
Stream size : 76.3 MiB (10%)
Alignment : Aligned on interleaves
Interleave, duration : 40 ms (1.00 video frame)
Interleave, preload duration : 504 ms
Writing library : LAME3.98r
Encoding settings : -m s -V 4 -q 2 -lowpass 17 -b 128
Скриншоты
загрузка...
Правила, инструкции, FAQ!!!
Торрент  Добавлен [19 апр 2014, 18:52] Скачать торрент
Скачать торрент
[ Размер 29.56 КБ / Просмотров 10 ]

Статус  
 
Размер  743.83 МБ
Приватный: Нет (DHT включён)
.torrent скачан  1
Как залить торрент? | Как скачать Torrent? | Как смотреть и слушать онлайн?  


     Отправить личное сообщение
   
Страница 1 из 1
Показать сообщения за:  Поле сортировки  
Начать новую тему Ответить на тему

   Похожие торренты   Автор   Ответы   Просмотры   Последнее сообщение 
В этой теме нет новых непрочитанных сообщений. Скачать торрент Простак / Simple (Иван Кальберак / Ivan Calberac / Ivan Calbérac) [2010, Франция, драма, комедия, экранизация, DVB] Original (Fre) + Sub (rus)

в форуме 720p | 1080p, Размер: 2.59 ГБ, Здоровье: 100%

Anonymous

0
8|8

119
5

11 фев 2014, 09:14

Anonymous Перейти к последнему сообщению

В этой теме нет новых непрочитанных сообщений. Скачать торрент Проверен Холодная гора / Cold Mountain (2003) BDRip

в форуме Драмы, Мелодрамы, Размер: 2.91 ГБ, Здоровье: 100%

Anonymous

0
91|48

53
81

01 сен 2015, 19:23

Anonymous Перейти к последнему сообщению

В этой теме нет новых непрочитанных сообщений. Скачать торрент Проверен Холодная гора / Cold Mountain (2003) BDRip 720p | Лицензия

в форуме 720p | 1080p, Размер: 7.76 ГБ, Здоровье: 100%

Гость

0
29|3

62
35

01 сен 2015, 19:28

Гость Перейти к последнему сообщению

В этой теме нет новых непрочитанных сообщений. Скачать торрент Проверен [iPad] Холодная гора / Cold Mountain (Энтони Мингелла / Anthony Minghella) [2003, США, Великобритания, Италия, Румыния, драма, мелодрама, военный, BDRip]

в форуме Фильмы для iPod, iPhone, iPad, Размер: 4.06 ГБ, Здоровье: 100%

Гость

0
5|1

54
0

14 май 2015, 00:19

Гость Перейти к последнему сообщению

В этой теме нет новых непрочитанных сообщений. Скачать торрент Проверен [iPad] Таинственный путь / Mystery Road (Иван Сен / Ivan Sen ) [2013, Австралия, триллер, детектив, HDRip, SD (576p)] VO + Original + sub (eng)

в форуме Фильмы для iPod, iPhone, iPad, Размер: 2.05 ГБ, Здоровье: 100%

Гость

0
7|2

49
0

14 май 2015, 00:21

Гость Перейти к последнему сообщению



Сейчас этот форум просматривают: нет зарегистрированных пользователей и гости: 1


Вы не можете начинать темы
Вы не можете отвечать на сообщения
Вы не можете редактировать свои сообщения
Вы не можете удалять свои сообщения
Вы не можете добавлять вложения

Перейти:  

!ВНИМАНИЕ!
 Ресурс не предоставляет электронные версии произведений, а занимается лишь коллекционированием и каталогизацией ссылок, присылаемых и публикуемых на форуме нашими читателями. Если вы являетесь правообладателем какого-либо представленного материала и не желаете чтобы ссылка на него находилась в нашем каталоге, свяжитесь с нами и мы незамедлительно удалим её. Файлы для обмена на трекере предоставлены пользователями сайта, и администрация не несёт ответственности за их содержание. Просьба не заливать файлы, защищенные авторскими правами, а также файлы нелегального содержания!