На всех торрентах на трекере установлена скидка на скачивание в размере 100 процентов(а).
 Возможность скачивания торрента НЕ зависит от ограничений при низком ратио, низком аплоаде, требуемом ратио или требуемом аплоаде.


Начать новую тему Ответить на тему
Статистика раздачи
Размер: 2.58 ГБ | Добавлен: 16 апр 2014, 07:50 | Скачали: 0
Сидеров: 56  [0 байт/сек]    Личеров: 19  [0 байт/сек]
Пред. тема | След. тема 

Автор
Сообщение

СообщениеДобавлено: 16 апр 2014, 07:50 

Совокупность лжи / Body of Lies

«Не верь никому. Обмани всех.»
Год выпуска: 2008
Страна: США
Жанр: Боевик, триллер, драма
Продолжительность: 2:08:18
Перевод №1: Профессиональный (дублированный)

Перевод №2: Любительский (двухголосый закадровый) {отдельно на файлообменнике}
Перевод №3: Авторский (одноголосый закадровый) [А. Дольский] {отдельно на файлообменнике}
Перевод №4: Авторский (одноголосый закадровый) [Ю. Сербин] {отдельно на файлообменнике}
Перевод №5: Авторский (одноголосый закадровый) [А. Гаврилов] {отдельно на файлообменнике}
Оригинальная аудиодорожка: Английская {отдельно}
Субтитры: Русские на иностранную речь, русские полные, английские полные {внешние, *.srt}
Режиссер: Ридли Скотт / Ridley Scott
В ролях: Леонардо ДиКаприо, Рассел Кроу, Марк Стронг, Голшифте Фарахани, Оскар Айзек, Али Сулиман, Алон Абутбул, Винс Колосимо, Саймон МакБерни, Мехди Неббу и др.
Описание: ЦРУ охотится на руководителя серии террористических атак. Роджер Феррис является агентом национальной разведки, он перемещается по всему свету, пытаясь предотвратить любые нежелательные события. Око в небе, спутник, наблюдает за ним. На другом конце этой связи ветеран ЦРУ Эд Хоффман, который отслеживает события издалека.
Чем ближе подбирается Феррис к своей цели, тем явственнее понимает, что доверие — это одновременно и опасная штука, и то единственное, что позволит ему остаться в живых…
Бюджет: $70 000 000
Сборы в США: $39 394 666 | Сборы в Мире: + $75 702 620 = $115 097 286 | Сборы в России: $1 019 000
Рейтинг MPAA: R (Лицам до 17 лет обязательно присутствие взрослого!)




Качество видео: BDRip

Формат видео: AVI
Видео: 720x304 (2.37:1), 23.976 fps, XviD build 73 ~1980 kbps avg, 0.38 bit/pixel
Аудио #1: 48 kHz, AC3 Dolby Digital, 3/2 (L,C,R,l,r) + LFE ch, ~448.00 kbps avg [Dub]
Аудио #2: 48 kHz, AC3 Dolby Digital, 3/2 (L,C,R,l,r) + LFE ch, ~448.00 kbps avg [Original Eng] {отдельно}
Аудио #3: 48 kHz, AC3 Dolby Digital, 3/2 (L,C,R,l,r) + LFE ch, ~384.00 kbps avg [DVO] {отдельно на файлообменнике}
Аудио #4: 48 kHz, AC3 Dolby Digital, 3/2 (L,C,R,l,r) + LFE ch, ~448.00 kbps avg [Дольский] {отдельно на файлообменнике}
Аудио #5: 48 kHz, AC3 Dolby Digital, 3/2 (L,C,R,l,r) + LFE ch, ~448.00 kbps avg [Сербин] {отдельно на файлообменнике}
Аудио #6: 48 kHz, AC3 Dolby Digital, 2/0 (L,R) ch, ~192.00 kbps avg [Гаврилов] {отдельно на файлообменнике}
Размер: 2235.27 Mb ( 2 343 847 936 bytes ) ½ DVD - без отдельных звуковых дорог!
MediaInfo
Код:
Код:
General
Complete name                            : C:\Users\Downloads\Encode\hns-body.re\Sovokupnost_lzhi.2008.BDRip.[R.G.AllFilms]\Sovokupnost_lzhi.2008.BDRip.[R.G.AllFilms].Dub.avi
Format                                   : AVI
Format/Info                              : Audio Video Interleave
Format profile                           : OpenDML
File size                                : 2.18 GiB
Duration                                 : 2h 8mn
Overall bit rate                         : 2 436 Kbps
Movie name                               : Body of Lies (2008) - BDRip by Ювелир
Writing application                      : VirtualDubMod 1.5.10.3 | www.virtualdub-fr.org || (build 2550/release)

Video
ID                                       : 0
Format                                   : MPEG-4 Visual
Format profile                           : Advanced Simple@L5
Format settings, BVOP                    : 1
Format settings, QPel                    : No
Format settings, GMC                     : No warppoints
Format settings, Matrix                  : Custom
Codec ID                                 : XVID
Codec ID/Hint                            : XviD
Duration                                 : 2h 8mn
Bit rate                                 : 1 976 Kbps
Width                                    : 720 pixels
Height                                   : 304 pixels
Display aspect ratio                     : 2.35:1
Frame rate                               : 23.976 fps
Color space                              : YUV
Chroma subsampling                       : 4:2:0
Bit depth                                : 8 bits
Scan type                                : Progressive
Compression mode                         : Lossy
Bits/(Pixel*Frame)                       : 0.377
Stream size                              : 1.77 GiB (81%)
Writing library                          : XviD 73

Audio
ID                                       : 1
Format                                   : AC-3
Format/Info                              : Audio Coding 3
Mode extension                           : CM (complete main)
Format settings, Endianness              : Big
Codec ID                                 : 2000
Duration                                 : 2h 8mn
Bit rate mode                            : Constant
Bit rate                                 : 448 Kbps
Channel(s)                               : 6 channels
Channel positions                        : Front: L C R, Side: L R, LFE
Sampling rate                            : 48.0 KHz
Bit depth                                : 16 bits
Compression mode                         : Lossy
Stream size                              : 411 MiB (18%)
Alignment                                : Split accross interleaves
Interleave, duration                     : 42 ms (1.00 video frame)
Interleave, preload duration             : 500 ms

Код:
Код:
[color=green]General
Complete name                            : C:\Users\Downloads\Encode\hns-body.re\Sovokupnost_lzhi.2008.BDRip.[R.G.AllFilms]\Sovokupnost_lzhi.2008.BDRip.[R.G.AllFilms].Original.ac3
Format                                   : AC-3
Format/Info                              : Audio Coding 3
File size                                : 411 MiB
Duration                                 : 2h 8mn
Overall bit rate mode                    : Constant
Overall bit rate                         : 448 Kbps

Audio
Format                                   : AC-3
Format/Info                              : Audio Coding 3
Mode extension                           : CM (complete main)
Format settings, Endianness              : Big
Duration                                 : 2h 8mn
Bit rate mode                            : Constant
Bit rate                                 : 448 Kbps
Channel(s)                               : 6 channels
Channel positions                        : Front: L C R, Side: L R, LFE
Sampling rate                            : 48.0 KHz
Bit depth                                : 16 bits
Compression mode                         : Lossy
Stream size                              : 411 MiB (100%)[/color]

Скриншоты


загрузка...
Правила, инструкции, FAQ!!!
Торрент  Добавлен [16 апр 2014, 07:50] Скачать торрент
Скачать торрент
[ Размер 27.09 КБ / Просмотров 19 ]

Статус  
 
Размер  2.58 ГБ
Приватный: Нет (DHT включён)
.torrent скачан  0
Как залить торрент? | Как скачать Torrent? | Как смотреть и слушать онлайн?  


     Отправить личное сообщение
   
Страница 1 из 1
Показать сообщения за:  Поле сортировки  
Начать новую тему Ответить на тему

   Похожие торренты   Автор   Ответы   Просмотры   Последнее сообщение 
В этой теме нет новых непрочитанных сообщений. Скачать торрент Совокупность лжи / Body of Lies (Ридли Скотт / Ridley Scott) [2008, Боевик, триллер, драма, BDRip] AVO (Гаврилов) + Original (Eng) + Subs (Rus, Eng)

в форуме Боевики, Размер: 1.47 ГБ, Здоровье: 100%

Anonymous

0
25|8

72
0

06 фев 2014, 11:45

Anonymous Перейти к последнему сообщению

В этой теме нет новых непрочитанных сообщений. Скачать торрент Гладиатор / Gladiator (Ридли Скотт / Ridley Scott) [2000 г., боевик, драма, приключения, BDRip] [Расширенная версия / Extended Cut] Dub + Original + Subs (Rus x2, Eng x2)

в форуме Боевики, Размер: 3.45 ГБ, Здоровье: 0%

Anonymous

0
0|0

100
0

18 дек 2013, 09:59

Anonymous Перейти к последнему сообщению

В этой теме нет новых непрочитанных сообщений. Скачать торрент Проверен [iPad] Советник / The Counselor (Ридли Скотт / Ridley Scott ) [2013, США, Великобритания, триллер, драма, криминал, HDRip, SD (576p)] DUB + Original + sub (rus, eng)

в форуме Фильмы для iPod, iPhone, iPad, Размер: 2.02 ГБ, Здоровье: 100%

Гость

0
46|15

52
1

18 май 2015, 10:31

Гость Перейти к последнему сообщению

В этой теме нет новых непрочитанных сообщений. Скачать торрент Гангстер / American Gangster (Ридли Скотт / Ridley Scott) [2007, США, Драма, криминал, BDRip-AVC] [Расширенная версия / Unrated Edition] Dub + MVO + original + sub (rus)

в форуме 720p | 1080p, Размер: 4.38 ГБ, Здоровье: 100%

Anonymous

0
9|3

77
0

12 фев 2014, 08:14

Anonymous Перейти к последнему сообщению

В этой теме нет новых непрочитанных сообщений. Скачать торрент Царство небесное / Kingdom of Heaven (Ридли Скотт / Ridley Scott) [2005, США, Испания, Приключения, история, боевик, BDRip-AVC] [Театральная версия | Theatrical Cut] DUB Sub + original eng

в форуме Исторические, Размер: 4.37 ГБ, Здоровье: 100%

Anonymous

0
20|7

100
0

10 фев 2014, 13:04

Anonymous Перейти к последнему сообщению



Сейчас этот форум просматривают: нет зарегистрированных пользователей и гости: 1


Вы не можете начинать темы
Вы не можете отвечать на сообщения
Вы не можете редактировать свои сообщения
Вы не можете удалять свои сообщения
Вы не можете добавлять вложения

Перейти:  

!ВНИМАНИЕ!
 Ресурс не предоставляет электронные версии произведений, а занимается лишь коллекционированием и каталогизацией ссылок, присылаемых и публикуемых на форуме нашими читателями. Если вы являетесь правообладателем какого-либо представленного материала и не желаете чтобы ссылка на него находилась в нашем каталоге, свяжитесь с нами и мы незамедлительно удалим её. Файлы для обмена на трекере предоставлены пользователями сайта, и администрация не несёт ответственности за их содержание. Просьба не заливать файлы, защищенные авторскими правами, а также файлы нелегального содержания!