На всех торрентах на трекере установлена скидка на скачивание в размере 100 процентов(а).
 Возможность скачивания торрента НЕ зависит от ограничений при низком ратио, низком аплоаде, требуемом ратио или требуемом аплоаде.


Начать новую тему Ответить на тему
Статистика раздачи
Размер: 1.46 ГБ | Добавлен: 06 янв 2013, 20:11 | Скачали: 0
Сидеров: 0  [0 байт/сек]    Личеров: 0  [0 байт/сек]
Пред. тема | След. тема 

Автор
Сообщение

СообщениеДобавлено: 06 янв 2013, 20:11 

Страна: США
Жанр: боевик, комедия, криминал
Год выпуска: 2012
Продолжительность: 01:38:38

Перевод: Любительский (многоголосый закадровый) ViruseProject
Cубтитры: нет
Оригинальная аудиодорожка: нет

Режиссер: Бэрри Баттлс / Barry Battles

В ролях: Андре Брогер, Клейн Кроуфорд, Дэниэл Кадмор, Трэвис Фиммел, Ева Лонгория, Пол Уэсли, Билли Боб Торнтон, Томас Броди Сэнгстер, Зои Белл, Натали Мартинез и др.

Описание: События развернутся вокруг трех братьев, которые всегда любили конфликты и хорошо подраться. Их нанимают для того, чтобы вернуть одной девушке похищенного паренька-инвалида. Парни входят во вкус и проливают реки чужой крови, в основном похитителей.





Перевод: kunfil (Федор Погорелов)
Видео приготовил, монтаж, сведение звука: viruse (Виталий Емельянов)
Постер: DirtySouth_RU




Качество видео: HDRip
Формат видео: AVI

Видео: 720x304 (2.37:1), 23.976 fps, XviD build 50 ~1729 kbps avg, 0.33 bit/pixel
Аудио: 48 kHz, AC3 Dolby Digital, 3/2 (L,C,R,l,r) + LFE ch, ~384 kbps


D:\ОЗВУЧКА\ГОТОВОЕ\ФИЛЬМЫ\ИЗГОИ ИЗ БЭЙТАУНА\Izgoi.Iz.Baytauna.2012.ViruseProject.avi
General
Complete name : D:\ОЗВУЧКА\ГОТОВОЕ\ФИЛЬМЫ\ИЗГОИ ИЗ БЭЙТАУНА\Izgoi.Iz.Baytauna.2012.ViruseProject.avi
Format : AVI
Format/Info : Audio Video Interleave
File size : 1.46 GiB
Duration : 1h 38mn
Overall bit rate : 2 123 Kbps
Writing application : VirtualDubMod 1.5.10.2 (build 2540/release)
Writing library : VirtualDubMod build 2540/release
Video #0
ID : 0
Format : MPEG-4 Visual
Format profile : Advanced Simple@L5
Format settings, BVOP : 1
Format settings, QPel : No
Format settings, GMC : No warppoints
Format settings, Matrix : Default (MPEG)
Codec ID : XVID
Codec ID/Hint : XviD
Duration : 1h 38mn
Bit rate : 1 730 Kbps
Width : 720 pixels
Height : 304 pixels
Display aspect ratio : 2.35:1
Frame rate : 23.976 fps
Color space : YUV
Chroma subsampling : 4:2:0
Bit depth : 8 bits
Scan type : Progressive
Compression mode : Lossy
Bits/(Pixel*Frame) : 0.330
Stream size : 1.19 GiB (81%)
Writing library : XviD 1.2.1 (UTC 2008-12-04)
Audio #1
ID : 1
Format : AC-3
Format/Info : Audio Coding 3
Mode extension : CM (complete main)
Format settings, Endianness : Big
Codec ID : 2000
Duration : 1h 38mn
Bit rate mode : Constant
Bit rate : 384 Kbps
Channel(s) : 6 channels
Channel positions : Front: L C R, Side: L R, LFE
Sampling rate : 48.0 KHz
Bit depth : 16 bits
Compression mode : Lossy
Stream size : 271 MiB (18%)
Alignment : Split accross interleaves
Interleave, duration : 42 ms (1.00 video frame)
Interleave, preload duration : 500 ms






загрузка...
Правила, инструкции, FAQ!!!
Торрент  Добавлен [06 янв 2013, 20:11] Скачать торрент
Скачать торрент
[ Размер 15.12 КБ / Просмотров 14 ]

Статус
Проверен 
 
Размер  1.46 ГБ
Приватный: Нет (DHT включён)
.torrent скачан  0
Как залить торрент? | Как скачать Torrent? | Как смотреть и слушать онлайн?  


     Отправить личное сообщение
   
Страница 1 из 1
Показать сообщения за:  Поле сортировки  
Начать новую тему Ответить на тему

   Похожие торренты   Автор   Ответы   Просмотры   Последнее сообщение 
В этой теме нет новых непрочитанных сообщений. Скачать торрент Бэйтаун вне закона / Прибрежное диско / The Baytown Outlaws (2012) HDRip | Лицензия

в форуме Боевики, Размер: 1.37 ГБ, Здоровье: 100%

Anonymous

0
19|0

78
43

27 янв 2014, 23:14

Anonymous Перейти к последнему сообщению

В этой теме нет новых непрочитанных сообщений. Скачать торрент Проверен Поженить Бэрри / Someone Marry Barry (2014) HDRip | L1

в форуме Комедии, Размер: 1.45 ГБ, Здоровье: 100%

Гость

0
226|85

71
158

20 июн 2015, 19:31

Гость Перейти к последнему сообщению

В этой теме нет новых непрочитанных сообщений. Скачать торрент Проверен Поженить Бэрри / Someone Marry Barry (2014) HDRip | iTunes

в форуме Комедии, Размер: 1.45 ГБ, Здоровье: 100%

Гость

0
50|0

218
38

02 мар 2016, 20:05

Гость Перейти к последнему сообщению

В этой теме нет новых непрочитанных сообщений. Скачать торрент Проверен [iPad] Плутовство / Хвост виляет собакой / Wag the dog (Бэрри Левинсон /Barry Levinson) [1997, США, Комедия, HDTVRip, 1024x576] MVO + Original + sub (rus, eng)

в форуме Фильмы для iPod, iPhone, iPad, Размер: 1.67 ГБ, Здоровье: 100%

Гость

0
57|19

81
1

11 май 2015, 01:37

Гость Перейти к последнему сообщению

В этой теме нет новых непрочитанных сообщений. Скачать торрент Проверен [VIDEO] Мачо и ботан / 21 Jump Street (Фил Лорд / Phil Lord, Крис Миллер / Chris Miller) [2012, США, боевик, комедия, криминал, HDRip][MP4, 640x]

в форуме Видео для смартфонов и КПК, Размер: 886.24 МБ, Здоровье: 100%

Anonymous

0
37|13

83
0

02 авг 2014, 17:04

Anonymous Перейти к последнему сообщению



Сейчас этот форум просматривают: нет зарегистрированных пользователей и гости: 3


Вы не можете начинать темы
Вы не можете отвечать на сообщения
Вы не можете редактировать свои сообщения
Вы не можете удалять свои сообщения
Вы не можете добавлять вложения

Перейти:  

!ВНИМАНИЕ!
 Ресурс не предоставляет электронные версии произведений, а занимается лишь коллекционированием и каталогизацией ссылок, присылаемых и публикуемых на форуме нашими читателями. Если вы являетесь правообладателем какого-либо представленного материала и не желаете чтобы ссылка на него находилась в нашем каталоге, свяжитесь с нами и мы незамедлительно удалим её. Файлы для обмена на трекере предоставлены пользователями сайта, и администрация не несёт ответственности за их содержание. Просьба не заливать файлы, защищенные авторскими правами, а также файлы нелегального содержания!