На всех торрентах на трекере установлена скидка на скачивание в размере 100 процентов(а).
 Возможность скачивания торрента НЕ зависит от ограничений при низком ратио, низком аплоаде, требуемом ратио или требуемом аплоаде.


Начать новую тему Ответить на тему
Статистика раздачи
Размер: 1.46 ГБ | Добавлен: 06 апр 2014, 12:23 | Скачали: 0
Сидеров: 0  [0 байт/сек]    Личеров: 0  [0 байт/сек]
Пред. тема | След. тема 

Автор
Сообщение

СообщениеДобавлено: 06 апр 2014, 12:23 

Национальная безопасность / National Security [2003, США, Боевик, триллер, комедия, криминал, BDRip]

Страна: США
Жанр: Боевик, триллер, комедия, криминал
Год выпуска: 2003
Продолжительность: 01:28:20

Перевод: Профессиональный (многоголосый закадровый)
Cубтитры: нет
Режиссер: Деннис Дуган / Dennis Dugan

В ролях: Мартин Лоуренс, Стив Зан, Колм Фиор, Билл Дьюк, Эрик Робертс, Тимоти Басфилд, Робин Ли, Мэтт МакКой, Бретт Каллен, Клио Кинг, Джерри Дел Сол, Кен Лернер, Мари Морроу, Стивен Тоболовски, Джо Флаэрти, Кит Кук, Майк Брэйди, Трой Гилберт, Энтони Дж. Шмидт, Джо Букаро III

Описание: Стать полицейским — мечта многих мальчишек. Стать офицером — мечта многих курсантов полицейской академии. А быть офицером службы «Национальной безопасности» означает только одно — быть неудачником. Эрл Монтгомери очутился там за систематическое нарушение дисциплины — его сочли недостойным носить звание полицейского. Незадолго до этого он подставил Хэнка Рафферти.
По иронии судьбы они становятся напарниками, и отношения между ними скорее напоминают боевые действия. Своими выездами на дежурство они умудряются «достать» весь город. И теперь в городе найдется немало желающих «замочить» эту парочку. Если только бравые блюстители порядка первыми не перебьют друг друга!



Автор рипа : chopper887

Качество видео: BDRip(Исх. BDRemux)
Формат видео: AVI

Видео: 720x384 (1.88:1), 23.976 fps, XviD build 50 ~1903 kbps avg, 0.29 bit/pixel
Аудио: 48 kHz, AC3 Dolby Digital, 3/2 (L,C,R,l,r) + LFE ch, ~448 kbps

File: National Security.chopper887.avi
Filesize: 1491.59 Mb ( 1 564 047 360 bytes )
Play length: 01:28:20.303 (127080 frames)
Subtitles: Not Present
Video: 720x384 (1.88:1), 23.976 fps, XviD build 50 ~1903 kbps avg, 0.29 bit/pixel
Audio: 48 kHz, AC3 Dolby Digital, 3/2 (L,C,R,l,r) + LFE ch, ~448 kbps

General
Complete name : J:National Security.chopper887.avi
Format : AVI
Format/Info : Audio Video Interleave
File size : 1.46 GiB
Duration : 1h 28mn
Overall bit rate : 2 361 Kbps
Writing application : VirtualDubMod 1.5.10.2 (build 2540/release)
Writing library : VirtualDubMod build 2540/release

Video
ID : 0
Format : MPEG-4 Visual
Format profile : AdvancedSimple@L5
Format settings, BVOP : Yes
Format settings, QPel : No
Format settings, GMC : No warppoints
Format settings, Matrix : Custom
Codec ID : XVID
Codec ID/Hint : XviD
Duration : 1h 28mn
Bit rate : 1 903 Kbps
Width : 720 pixels
Height : 384 pixels
Display aspect ratio : 1.875
Frame rate : 23.976 fps
Resolution : 24 bits
Colorimetry : 4:2:0
Scan type : Progressive
Bits/(Pixel*Frame) : 0.287
Stream size : 1.17 GiB (81%)
Writing library : XviD 1.2.1 (UTC 2008-12-04)

Audio
ID : 1
Format : AC-3
Format/Info : Audio Coding 3
Codec ID : 2000
Duration : 1h 28mn
Bit rate mode : Constant
Bit rate : 448 Kbps
Channel(s) : 6 channels
Channel positions : Front: L C R, Surround: L R, LFE
Sampling rate : 48.0 KHz
Stream size : 283 MiB (19%)
Alignment : Split accross interleaves
Interleave, duration : 42 ms (1.00 video frame)
Interleave, preload duration : 500 ms




загрузка...
Правила, инструкции, FAQ!!!
Торрент  Добавлен [06 апр 2014, 12:23] Скачать торрент
Скачать торрент
[ Размер 15.16 КБ / Просмотров 7 ]

Статус  
 
Размер  1.46 ГБ
Приватный: Нет (DHT включён)
.torrent скачан  0
Как залить торрент? | Как скачать Torrent? | Как смотреть и слушать онлайн?  


     Отправить личное сообщение
   
Страница 1 из 1
Показать сообщения за:  Поле сортировки  
Начать новую тему Ответить на тему

   Похожие торренты   Автор   Ответы   Просмотры   Последнее сообщение 
В этой теме нет новых непрочитанных сообщений. Скачать торрент Национальная безопасность / National Security (2003) BDRip 720p | D, P, A

в форуме 720p | 1080p, Размер: 4.37 ГБ, Здоровье: 100%

Anonymous

0
15|3

32
94

06 апр 2014, 12:20

Anonymous Перейти к последнему сообщению

В этой теме нет новых непрочитанных сообщений. Скачать торрент Проверен Переполох в общаге / National Lampoon Presents Dorm Daze (2003) BDRip 1080p | D, P2, A

в форуме 720p | 1080p, Размер: 6.48 ГБ, Здоровье: 100%

Anonymous

0
14|0

22
67

21 май 2014, 06:19

Anonymous Перейти к последнему сообщению

В этой теме нет новых непрочитанных сообщений. Скачать торрент Проверен Santana - Shaman (2003) [MLP 5.1, 2.0 96/24 |DVD-Audio] <National music>

в форуме DVD-Audio, Размер: 6.66 ГБ, Здоровье: 20%

Anonymous

0
43|213

68
5

25 янв 2015, 13:03

Anonymous Перейти к последнему сообщению

В этой теме нет новых непрочитанных сообщений. Скачать торрент Проверен (Jazz-Prog-Rock/Fusion,Canterbury Scene)[LP][24/192] National Health - National Health - 1978, FLAC (image+.cue)

в форуме Зарубежный рок (оцифровки), Размер: 1.82 ГБ, Здоровье: ???%

Anonymous

0
0|1

14
0

25 авг 2016, 20:01

Anonymous Перейти к последнему сообщению

В этой теме нет новых непрочитанных сообщений. Скачать торрент Проверен (Canterbury/Progressive rock) National Health - National Health - 1977, APE (image + .cue + scans), lossless

в форуме Progressive & Art-Rock, Размер: 270.33 МБ, Здоровье: 0%

Anonymous

0
0|0

2
0

30 авг 2016, 18:37

Anonymous Перейти к последнему сообщению



Сейчас этот форум просматривают: нет зарегистрированных пользователей и гости: 1


Вы не можете начинать темы
Вы не можете отвечать на сообщения
Вы не можете редактировать свои сообщения
Вы не можете удалять свои сообщения
Вы не можете добавлять вложения

Перейти:  

!ВНИМАНИЕ!
 Ресурс не предоставляет электронные версии произведений, а занимается лишь коллекционированием и каталогизацией ссылок, присылаемых и публикуемых на форуме нашими читателями. Если вы являетесь правообладателем какого-либо представленного материала и не желаете чтобы ссылка на него находилась в нашем каталоге, свяжитесь с нами и мы незамедлительно удалим её. Файлы для обмена на трекере предоставлены пользователями сайта, и администрация не несёт ответственности за их содержание. Просьба не заливать файлы, защищенные авторскими правами, а также файлы нелегального содержания!