На всех торрентах на трекере установлена скидка на скачивание в размере 100 процентов(а).
 Возможность скачивания торрента НЕ зависит от ограничений при низком ратио, низком аплоаде, требуемом ратио или требуемом аплоаде.


Начать новую тему Ответить на тему
Статистика раздачи
Размер: 781.5 МБ | Добавлен: 03 апр 2014, 12:43 | Скачали: 0
Сидеров: 11  [0 байт/сек]    Личеров: 4  [0 байт/сек]
Пред. тема | След. тема 

Автор
Сообщение

СообщениеДобавлено: 03 апр 2014, 12:43 

Призрачный гонщик / Ghost Rider
Расширенная версия / Extended Cut
«Когда-то он заключил сделку во имя любви...»
Страна: США, Австралия
Жанр: Боевик, комикс
Год выпуска: 2007
Продолжительность: 02:03:25

Перевод: Профессиональный (двухголосый закадровый) - Гланц и Королева

Cубтитры: нет
Режиссер: Марк Стивен Джонсон / Mark Steven Johnson

В ролях: Николас Кейдж, Ева Мендес, Мэтт Лонг, Рэкуэл Алесси, Бретт Каллен, Питер Фонда, Донал Лог, Тони Гоустхок, Хью Секстон, Маркус Джонс, Мэтт Норман, Лоуренс Камерон Стил, Уэс Бентли, Эдди Бару, Джессика Нэпиер, Лоуренс Брюлс, Дэниэл Фредериксен, Мэттью Уилкинсон, Керсти Хаттон, Гибсон Нолт, Райан Джонсон, Сэм Эллиотт, Питер Каллэн, Джоэль Тобек
Описание: Чтобы спасти своего отца от верной гибели, байкер-экстремал Джонни Блэйз заключает сделку с дьяволом, объектом которой является его бессмертная душа. Проходят годы, и дьявол предъявляет свои права по контракту. Он превращает Джонни в Призрачного Гонщика, агента потусторонних сил, обладающего сверхчеловеческими способностями.
С наступлением ночи он проносится по городу на своем «адском» Харлее и собирает людскую «дань» для своего нового хозяина. И хотя контракт — бессрочный, и колесить бы ему до конца своих дней, оставляя огненный след на темных улицах, но светлая сторона главного героя все-таки одерживает победу над силами тьмы...

Размер: 1/6 DVD
Исходник: BDRip 1080p

Качество видео: HDRip
Формат видео: AVI

Видео: 640x272 (2.35:1), 23.976 fps, XviD MPEG-4 ~747 kbps avg, 0.18 bit/pixel
Аудио: 48 kHz, MPEG Layer 3, 2 ch, ~128.00 kbps avg
MediaInfo
Общее
Полное имя : C:\Documents and Settings\Администратор\Рабочий стол\Ghost Rider_745Mb_R.G.Torrents.Ru_Drek.avi
Формат : AVI
Формат/Информация : Audio Video Interleave
Размер файла : 781 Мбайт
Продолжительность : 2 ч. 3 м.
Общий поток : 885 Кбит/сек
Программа кодирования : VirtualDubModRus 1.5.10.2 (build 2542/release)
Библиотека кодирования : VirtualDubMod build 2542/release

Видео
Идентификатор : 0
Формат : MPEG-4 Visual
Профиль формата : Advanced Simple@L5
Параметр BVOP формата : 2
Параметр QPel формата : Нет
Параметр GMC формата : Без точки перехода
Параметр матрицы формата : Выборочная
Режим смешивания : Сжатый битовый поток
Идентификатор кодека : XVID
Идентификатор кодека/Подсказка : XviD
Продолжительность : 2 ч. 3 м.
Битрейт : 748 Кбит/сек
Ширина : 640 пикселей
Высота : 272 пикселя
Соотношение сторон : 2,35:1
Частота кадров : 23,976 кадра/сек
Цветовое пространство : YUV
Субдискретизация насыщенности : 4:2:0
Битовая глубина : 8 бит
Тип развёртки : Прогрессивная
Метод сжатия : С потерями
Бит/(Пиксели*Кадры) : 0.179
Размер потока : 660 Мбайт (84%)
Библиотека кодирования : XviD 64

Аудио
Идентификатор : 1
Формат : MPEG Audio
Версия формата : Version 1
Профиль формата : Layer 3
Режим : Joint stereo
Расширение режима : MS Stereo
Идентификатор кодека : 55
Идентификатор кодека/Подсказка : MP3
Продолжительность : 2 ч. 3 м.
Вид битрейта : Постоянный
Битрейт : 128 Кбит/сек
Каналы : 2 канала
Частота : 48,0 КГц
Метод сжатия : С потерями
Размер потока : 113 Мбайт (14%)
Выравнивание : Соединение по промежуткам
Продолжительность промежутка : 42 мс. (1,00 видеокадр)
Время предзагрузки промежутка : 504 мс.
Скриншоты
[center]
загрузка...
Правила, инструкции, FAQ!!!
Торрент  Добавлен [03 апр 2014, 12:43] Скачать торрент
Скачать торрент
[ Размер 31.03 КБ / Просмотров 13 ]

Статус  
 
Размер  781.5 МБ
Приватный: Нет (DHT включён)
.torrent скачан  0
Как залить торрент? | Как скачать Torrent? | Как смотреть и слушать онлайн?  


     Отправить личное сообщение
   
Страница 1 из 1
Показать сообщения за:  Поле сортировки  
Начать новую тему Ответить на тему

   Похожие торренты   Автор   Ответы   Просмотры   Последнее сообщение 
В этой теме нет новых непрочитанных сообщений. Скачать торрент Проверен [iPhone] Сорвиголова / Daredevil (Марк Стивен Джонсон\Mark Steven Johnson) [2003, Фэнтэзи, Боевик, Триллер, Криминал, HDRip, 480x200]

в форуме Фильмы для iPod, iPhone, iPad, Размер: 451.81 МБ, Здоровье: 100%

Anonymous

0
1|0

42
0

12 май 2015, 00:10

Anonymous Перейти к последнему сообщению

В этой теме нет новых непрочитанных сообщений. Скачать торрент Однажды в Риме / When in Rome (Марк Стивен Джонсон / Mark Steven Johnson) [2010 г., комедия, мелодрама, HDRip] Dub

в форуме Комедии, Размер: 744.09 МБ, Здоровье: 0%

Anonymous

0
0|0

82
0

16 апр 2014, 07:51

Anonymous Перейти к последнему сообщению

В этой теме нет новых непрочитанных сообщений. Скачать торрент Проверен [iPad] Однажды в Риме / When in Rome (Марк Стивен Джонсон / Mark Steven Johnson ) [2009, США, мелодрама, комедия, HDRip, SD (576p)] DUB + Original + sub (rus, eng)

в форуме Фильмы для iPod, iPhone, iPad, Размер: 1.56 ГБ, Здоровье: 100%

Гость

0
9|3

56
0

11 май 2015, 01:39

Гость Перейти к последнему сообщению

В этой теме нет новых непрочитанных сообщений. Скачать торрент Призрачный гонщик / Ghost Rider (2007) BDRip 720p

в форуме 720p | 1080p, Размер: 3.53 ГБ, Здоровье: 100%

Anonymous

0
25|2

48
51

31 янв 2014, 19:07

Anonymous Перейти к последнему сообщению

В этой теме нет новых непрочитанных сообщений. Скачать торрент Вавилон Н.Э. (Расширенная версия) / Babylon A.D. (Extended Cut) (Матье Кассовиц / Mathieu Kassovitz) [2008 г., фантастика, боевик, приключения, HDRip-AVC]

в форуме 720p | 1080p, Размер: 2.18 ГБ, Здоровье: 100%

Anonymous

0
7|2

26
0

12 фев 2014, 08:18

Anonymous Перейти к последнему сообщению



Сейчас этот форум просматривают: нет зарегистрированных пользователей и гости: 3


Вы не можете начинать темы
Вы не можете отвечать на сообщения
Вы не можете редактировать свои сообщения
Вы не можете удалять свои сообщения
Вы не можете добавлять вложения

Перейти:  

!ВНИМАНИЕ!
 Ресурс не предоставляет электронные версии произведений, а занимается лишь коллекционированием и каталогизацией ссылок, присылаемых и публикуемых на форуме нашими читателями. Если вы являетесь правообладателем какого-либо представленного материала и не желаете чтобы ссылка на него находилась в нашем каталоге, свяжитесь с нами и мы незамедлительно удалим её. Файлы для обмена на трекере предоставлены пользователями сайта, и администрация не несёт ответственности за их содержание. Просьба не заливать файлы, защищенные авторскими правами, а также файлы нелегального содержания!